Статистика раздачи
Размер:  222 MB   |    Зарегистрирован:  3 дня   |    Скачан:  0 раз

Полного источника не было: Никогда

 
   
 
 

lopster ®

Пол:
Не указан
Стаж:
3 дня
Сообщений:
509

Пробуждение«Не стоит играть в прятки с совестью» Год выпуска: 2014
Жанр: драма, короткометражка
Продолжительность: 00:15:30-Режиссёр: Константин Тищенко
В главных ролях: Владимир Вдовиченков, Александр Кононец, Константин Ельчанинов, Николай Белин-Описание: В центре сюжета картины преуспевающий сорокалетний адвокат, за обворожительной улыбкой которого скрывается циник и лицемер. На загородной трассе, отвлекшись на телефонный разговор, он сбивает парня и под предлогом необходимости отвезти его в больницу покидает место происшествия. В пути адвокат вступает в переговоры с юношей, желая откупиться. Однако неожиданно дерзкий, для своего положения, паренек не просто отвергает выгодное предложение, но и начинает изобличать адвоката, вмиг обнажая все попытки манипулировать собой, и требуя от адвоката полного добровольного признания.- -Качество: WEB-DLRip-AVC
Формат: MKV
Видео кодек: AVC
Аудио кодек: AС3
Видео: 1120x476, 25 fps, ~1 808 kbps avg, 0.136 bit/pixel
Аудио: 48 kHz, AC3 Dolby Digital, 2/0 (L,R) ch, ~192 kbps

скриншоты

MediaInfo

General
Unique ID : 231055005092293501863679724134079130482 (0xADD3934791364480B35637638347EB72)
Complete name : D:\Mult\Пробуждение.2014.WEB-DLRip-AVC.mkv
Format : Matroska
Format version : Version 4 / Version 2
File size : 222 MiB
Duration : 15 min
Overall bit rate : 2 001 kb/s
Encoded date : UTC 2017-10-21 07:42:24
Writing application : mkvmerge v13.0.0 ('The Juggler') 64bit
Writing library : libebml v1.3.4 + libmatroska v1.4.5
Video
ID : 1
Format : AVC
Format/Info : Advanced Video Codec
Format profile : High@L4.1
Format settings, CABAC : Yes
Format settings, ReFrames : 9 frames
Codec ID : V_MPEG4/ISO/AVC
Duration : 15 min
Bit rate : 1 808 kb/s
Width : 1 120 pixels
Height : 476 pixels
Display aspect ratio : 2.35:1
Frame rate mode : Constant
Frame rate : 25.000 FPS
Color space : YUV
Chroma subsampling : 4:2:0
Bit depth : 8 bits
Scan type : Progressive
Bits/(Pixel*Frame) : 0.136
Stream size : 200 MiB (90%)
Writing library : x264 core 152 r2851kMod ba24899
Encoding settings : cabac=1 / ref=9 / deblock=1:-2:-1 / analyse=0x3:0x133 / me=umh / subme=11 / psy=1 / fade_compensate=0.00 / psy_rd=1.00:0.05 / mixed_ref=1 / me_range=32 / chroma_me=1 / trellis=2 / 8x8dct=1 / cqm=0 / deadzone=21,11 / fast_pskip=0 / chroma_qp_offset=-3 / threads=6 / lookahead_threads=1 / sliced_threads=0 / nr=0 / decimate=1 / interlaced=0 / bluray_compat=0 / constrained_intra=0 / bframes=16 / b_pyramid=2 / b_adapt=2 / b_bias=0 / direct=3 / weightb=1 / open_gop=0 / weightp=2 / keyint=250 / keyint_min=25 / scenecut=40 / intra_refresh=0 / rc_lookahead=70 / rc=crf / mbtree=0 / crf=17.0000 / qcomp=0.60 / qpmin=0 / qpmax=69 / qpstep=4 / vbv_maxrate=50000 / vbv_bufsize=62500 / crf_max=0.0 / nal_hrd=none / filler=0 / ip_ratio=1.40 / pb_ratio=1.30 / aq=3:0.80
Default : Yes
Forced : No
Color range : Limited
Color primaries : BT.709
Transfer characteristics : BT.709
Matrix coefficients : BT.709
Audio
ID : 2
Format : AC-3
Format/Info : Audio Coding 3
Mode extension : CM (complete main)
Format settings, Endianness : Big
Codec ID : A_AC3
Duration : 15 min
Bit rate mode : Constant
Bit rate : 192 kb/s
Channel(s) : 2 channels
Channel positions : Front: L R
Sampling rate : 48.0 kHz
Frame rate : 31.250 FPS (1536 spf)
Compression mode : Lossy
Stream size : 21.3 MiB (10%)
Default : Yes
Forced : No
[cybertorrent.ru].t413.torrent 
Торрент: Зарегистрирован [ 2018-02-15 15:48 ] · 580D7FD484205E7BABE9980BD44DA9AB9F761978

Скачать .torrent

Скачать

18 KB

Статус: проверено
Скачан: 0 раз
Размер: 222 MB
terms.php
Профиль [ЛС]
Показать сообщения:    

Текущее время: 19-Фев 05:55

Часовой пояс: UTC ± 0



Вы не можете начинать темы
Вы не можете отвечать на сообщения
Вы не можете редактировать свои сообщения
Вы не можете удалять свои сообщения
Вы не можете голосовать в опросах
Вы не можете прикреплять файлы к сообщениям
Вы можете скачивать файлы