Статистика раздачи
Размер:  1,37 GB   |    Зарегистрирован:  3 месяца 11 дней   |    Скачан:  0 раз

Полного источника не было: Никогда

 
   
 
 

lopster ®

Пол:
Не указан
Стаж:
3 месяца 11 дней
Сообщений:
612

15 суток
Жанр: комедия
Год выпуска: 2015
Продолжительность: 01:30:16
Субтитры: нет
Режиссёр: Артем Марков
В ролях: Павел Крайнов, Серафима Никовская, Виктория Полторак, Александра Скачкова, Сергей Майоров, Елена Чарквиани, Иван Агапов, Константин Карасик, Алексия Фроемчук, Илья Капанец

Описание: Военнослужащий Степан Фролов погибает при исполнении воинского долга и предстает перед чиновниками небесной канцелярии — Петром и Павлой. В его почти праведной жизни они разглядели только один грех, но настолько серьезный, что заслуженный отдых на том свете герою уже не светит… Список обид, которые Степан нанёс женщинам, составляет почти 5000 пунктов. За это Петр и Павла влепили капитану Фролову 15 суток. На исправление. Степана временно отправляют на Землю, чтобы понять, чего хотят женщины и попытаться сделать счастливой хотя бы одну из них. Времени в обрез. И теперь именно от женщин зависит, насколько спокойной и комфортной будет его жизнь в лучшем из миров.


Sample
Качество видео: WEB-DLRip - Files-х
Формат видео: AVI
Видео: 720x400 (1.80:1), 25 fps, XviD build 73 ~1968 kbps avg, 0.27 bit/pixel
Аудио: 48 kHz, AC3 Dolby Digital, 2/0 (L,R) ch, ~192 kbps

MediaInfo

General
Complete name : D:\15.sutok.2015.WEB-DLRip.Files-x.avi
Format : AVI
Format/Info : Audio Video Interleave
File size : 1.37 GiB
Duration : 1h 30mn
Overall bit rate : 2 170 Kbps
Writing application : VirtualDubMod 1.5.10.3 | www.virtualdub-fr.org || (build 2550/release)
Writing library : VirtualDubMod build 2550/release
Video
ID : 0
Format : MPEG-4 Visual
Format profile : Advanced Simple@L5
Format settings, BVOP : 1
Format settings, QPel : No
Format settings, GMC : No warppoints
Format settings, Matrix : Custom
Codec ID : XVID
Codec ID/Hint : XviD
Duration : 1h 30mn
Bit rate : 1 969 Kbps
Width : 720 pixels
Height : 400 pixels
Display aspect ratio : 16:9
Frame rate : 25.000 fps
Color space : YUV
Chroma subsampling : 4:2:0
Bit depth : 8 bits
Scan type : Progressive
Compression mode : Lossy
Bits/(Pixel*Frame) : 0.273
Stream size : 1.24 GiB (91%)
Writing library : XviD 73
Audio
ID : 1
Format : AC-3
Format/Info : Audio Coding 3
Mode extension : CM (complete main)
Format settings, Endianness : Big
Codec ID : 2000
Duration : 1h 30mn
Bit rate mode : Constant
Bit rate : 192 Kbps
Channel count : 2 channels
Channel positions : Front: L R
Sampling rate : 48.0 KHz
Bit depth : 16 bits
Compression mode : Lossy
Stream size : 124 MiB (9%)
Alignment : Split accross interleaves
Interleave, duration : 40 ms (1.00 video frame)
Interleave, preload duration : 500 ms

Скриншот c названием фильма

Скриншоты


[cybertorrent.ru].t463.torrent 
Торрент: Зарегистрирован [ 2018-02-15 15:48 ] · 5EB932FADF429FCDCADC900AA4D4FE0E3D72995C

Скачать .torrent

Скачать

14 KB

Статус: проверено
Скачан: 0 раз
Размер: 1,37 GB
Профиль [ЛС]
Показать сообщения:    

Текущее время: 27-Май 05:22

Часовой пояс: UTC ± 0



Вы не можете начинать темы
Вы не можете отвечать на сообщения
Вы не можете редактировать свои сообщения
Вы не можете удалять свои сообщения
Вы не можете голосовать в опросах
Вы не можете прикреплять файлы к сообщениям
Вы можете скачивать файлы