Статистика раздачи
Размер:  744 MB   |    Зарегистрирован:  3 дня   |    Скачан:  0 раз

Полного источника не было: Никогда

 
   
 
 

lopster ®

Пол:
Не указан
Стаж:
3 дня
Сообщений:
509

15 суток
Жанр: комедия
Год выпуска: 2015
Продолжительность: 01:30:16
Субтитры: нет-Режиссёр: Артем Марков-В ролях: Павел Крайнов, Серафима Никовская, Виктория Полторак, Александра Скачкова, Сергей Майоров, Елена Чарквиани, Иван Агапов, Константин Карасик, Алексия Фроемчук, Илья Капанец-Описание: Военнослужащий Степан Фролов погибает при исполнении воинского долга и предстает перед чиновниками небесной канцелярии — Петром и Павлой. В его почти праведной жизни они разглядели только один грех, но настолько серьезный, что заслуженный отдых на том свете герою уже не светит… Список обид, которые Степан нанёс женщинам, составляет почти 5000 пунктов. За это Петр и Павла влепили капитану Фролову 15 суток. На исправление. Степана временно отправляют на Землю, чтобы понять, чего хотят женщины и попытаться сделать счастливой хотя бы одну из них. Времени в обрез. И теперь именно от женщин зависит, насколько спокойной и комфортной будет его жизнь в лучшем из миров.-Качество видео: WEB-DLRip
Формат видео: AVI
Видео: 688x384 (1.79:1), 25 fps, XviD build 73 ~1013 kbps avg, 0.15 bit/pixel
Аудио: 48 kHz, MPEG Layer 3, 2 ch, ~128.00 kbps avg-Скачать сэмпл-

MediaInfo

Код:Format : AVI
Format/Info : Audio Video Interleave
File size : 744 MiB
Duration : 1 h 30 min
Overall bit rate : 1 151 kb/s
Writing application : VirtualDubMod 1.5.10.3 | www.virtualdub-fr.org || (build 2550/release)
Writing library : VirtualDubMod build 2550/release
Video
ID : 0
Format : MPEG-4 Visual
Format profile : Advanced Simple@L5
Format settings : BVOP1
Format settings, BVOP : 1
Format settings, QPel : No
Format settings, GMC : No warppoints
Format settings, Matrix : Default (H.263)
Codec ID : XVID
Codec ID/Hint : XviD
Duration : 1 h 30 min
Bit rate : 1 014 kb/s
Width : 688 pixels
Height : 384 pixels
Display aspect ratio : 16:9
Frame rate : 25.000 FPS
Color space : YUV
Chroma subsampling : 4:2:0
Bit depth : 8 bits
Scan type : Progressive
Compression mode : Lossy
Bits/(Pixel*Frame) : 0.153
Stream size : 655 MiB (88%)
Writing library : XviD 73
Audio
ID : 1
Format : MPEG Audio
Format version : Version 1
Format profile : Layer 3
Codec ID : 55
Codec ID/Hint : MP3
Duration : 1 h 30 min
Bit rate mode : Constant
Bit rate : 128 kb/s
Channel(s) : 2 channels
Sampling rate : 48.0 kHz
Frame rate : 41.667 FPS (1152 SPF)
Compression mode : Lossy
Stream size : 82.7 MiB (11%)
Alignment : Aligned on interleaves
Interleave, duration : 40 ms (1.00 video frame)
Interleave, preload duratio : 504 ms
Writing library : LAME3.99r
Encoding settings : -m s -V 4 -q 2 -lowpass 17 -b 128

Скриншоты

[cybertorrent.ru].t464.torrent 
Торрент: Зарегистрирован [ 2018-02-15 15:48 ] · E884B167B8C4D56E9661A8CDD39B21856156A978

Скачать .torrent

Скачать

15 KB

Статус: проверено
Скачан: 0 раз
Размер: 744 MB
terms.php
Профиль [ЛС]
Показать сообщения:    

Текущее время: 19-Фев 05:56

Часовой пояс: UTC ± 0



Вы не можете начинать темы
Вы не можете отвечать на сообщения
Вы не можете редактировать свои сообщения
Вы не можете удалять свои сообщения
Вы не можете голосовать в опросах
Вы не можете прикреплять файлы к сообщениям
Вы можете скачивать файлы