Статистика раздачи
Размер:  6,54 GB   |    Зарегистрирован:  3 месяца 7 дней   |    Скачан:  0 раз

Полного источника не было: Никогда

Личеров:  1  [  0 KB/s  ]  
 
   
 
 

xfactor ®

Пол:
Не указан
Стаж:
3 месяца 8 дней
Сообщений:
238

Черный тюльпан / La tulipe noire
Страна: Франция, Италия, Испания
Жанр: боевик, комедия, приключения
Год выпуска: 1963
Продолжительность: 01:48:25
Перевод: Профессиональный (многоголосый, закадровый)
Перевод 2: Профессиональный (дублированный)
Субтитры: русские, французские
Оригинальная аудиодорожка: французская
Режиссер: Кристиан-Жак / Christian-Jaque
В ролях: Ален Делон, Вирна Лизи, Адольфо Марсильяч, Доун Аддамс, Аким Тамирофф, Лаура Валенсуэла, Жорж Риго, Франсис Бланш, Хосе Хаспе, Перла Кристаль
Описание: Накануне Французской революции в тихой провинции жуткий страх наводит на знатных мерзавцев таинственный разбойник в маске, чьим фирменным знаком стал черный тюльпан. Неуловимый мститель находчив, бесстрашен, благороден и умен, он прекрасный наездник и гений фехтования. Дворянин Жульен — беспечный неженка, глупый и трусливый — совсем на него не похож. Но никто не знает, что есть нечто, крепко связывающее этих двоих.
Бонусы: Фотогалерея, Галерея постеров, Создатели и исполнители, Коллекция Жана Габена, Коллекция Анри-Жоржа Клюзо, Коллекция Жан-Пьера Мельвиля
Меню: есть, статичное, озвученное
Тип релиза: DVD9
Контейнер: DVD-Video
Видео: PAL 16:9 (720x576(0.675)) MPEG Video, 25,000 кадр/сек, 7000 Кбит/сек
Аудио: Russian (Dolby AC-3, 6 ch) 384 Кбит/сек, 48.0 КГц
Аудио 2: French (Dolby AC-3, 6 ch) 384 Кбит/сек, 48.0 КГц
Аудио 3: Russian (Dolby AC-3, 2 ch) 192 Кбит/сек, 48.0 КГц, Дубляж

MediaInfo

Общее
Полное имя : Cherniu tulpan\VIDEO_TS\VTS_06_1.VOB
Формат : MPEG-PS
Размер файла : 1024 Мбайт
Продолжительность : 17 м. 38 с.
Общий поток : 8112 Кбит/сек
Видео
Идентификатор : 224 (0xE0)
Формат : MPEG Video
Версия формата : Version 2
Профиль формата : Main@Main
Настройки формата : BVOP
Параметр BVOP формата : Да
Параметр матрицы формата : По умолчанию
Параметр GOP формата : M=3, N=26
Структура изображения : Field
Продолжительность : 17 м. 38 с.
Вид битрейта : Постоянный
Битрейт : 7000 Кбит/сек
Ширина : 720 пикселей
Высота : 576 пикселей
Соотношение сторон : 2,40:1
Частота кадров : 25,000 кадров/сек
Стандарт вещания : PAL
Цветовое пространство : YUV
Субдискретизация насыщенности : 4:2:0
Битовая глубина : 8 бит
Тип развёртки : Чересстрочная
Порядок развёртки : Верхнее поле первое
Метод сжатия : С потерями
Бит/(Пиксели*Кадры) : 0.675
Временной код первого кадра : 00:00:00:00
Оригинал временного кода : Group of pictures header
GOP, открыто/закрыто : Открыто
Размер потока : 882 Мбайт (86%)
Основные цвета : BT.601 PAL
Характеристики трансфера : BT.470 System B, BT.470 System G
Коэффициенты матрицы : BT.470 System B, BT.470 System G
Аудио #1
Идентификатор : 189 (0xBD)-128 (0x80)
Формат : AC-3
Формат/Информация : Audio Coding 3
Режим смешивания : DVD-Video
Продолжительность : 17 м. 38 с.
Вид битрейта : Постоянный
Битрейт : 384 Кбит/сек
Каналы : 6 каналов
Расположение каналов : Front: L C R, Side: L R, LFE
Частота : 48,0 КГц
Частота кадров : 31,250 кадров/сек (1536 SPF)
Битовая глубина : 16 бит
Метод сжатия : С потерями
Размер потока : 48,5 Мбайт (5%)
ServiceKind/String : Complete Main
Аудио #2
Идентификатор : 189 (0xBD)-129 (0x81)
Формат : AC-3
Формат/Информация : Audio Coding 3
Режим смешивания : DVD-Video
Продолжительность : 17 м. 38 с.
Вид битрейта : Постоянный
Битрейт : 384 Кбит/сек
Каналы : 6 каналов
Расположение каналов : Front: L C R, Side: L R, LFE
Частота : 48,0 КГц
Частота кадров : 31,250 кадров/сек (1536 SPF)
Битовая глубина : 16 бит
Метод сжатия : С потерями
Размер потока : 48,5 Мбайт (5%)
ServiceKind/String : Complete Main
Аудио #3
Идентификатор : 189 (0xBD)-130 (0x82)
Формат : AC-3
Формат/Информация : Audio Coding 3
Режим смешивания : DVD-Video
Продолжительность : 17 м. 38 с.
Вид битрейта : Постоянный
Битрейт : 192 Кбит/сек
Каналы : 2 канала
Расположение каналов : Front: L R
Частота : 48,0 КГц
Частота кадров : 31,250 кадров/сек (1536 SPF)
Битовая глубина : 16 бит
Метод сжатия : С потерями
Размер потока : 24,2 Мбайт (2%)
ServiceKind/String : Complete Main
Текст #1
Идентификатор : 189 (0xBD)-33 (0x21)
Формат : RLE
Формат/Информация : Run-length encoding
Режим смешивания : DVD-Video
Продолжительность : 17 м. 37 с.
Задержка видео : 160 мс.
Текст #2
Идентификатор : 189 (0xBD)-32 (0x20)
Формат : RLE
Формат/Информация : Run-length encoding
Режим смешивания : DVD-Video

Скриншоты меню

Скриншоты

Скриншоты доп. материалов

[cybertorrent.ru].t804.torrent 
Торрент: Зарегистрирован [ 2018-02-15 22:25 ] · 12E8DA48A8521B46A4E4D5F2890D89D6CCBD575D

Скачать .torrent

Скачать

18 KB

Статус: проверено
Скачан: 0 раз
Размер: 6,54 GB
Профиль [ЛС]
Показать сообщения:    

Текущее время: 23-Май 20:38

Часовой пояс: UTC ± 0



Вы не можете начинать темы
Вы не можете отвечать на сообщения
Вы не можете редактировать свои сообщения
Вы не можете удалять свои сообщения
Вы не можете голосовать в опросах
Вы не можете прикреплять файлы к сообщениям
Вы можете скачивать файлы