Статистика раздачи
Размер:  3,6 GB   |    Зарегистрирован:  3 месяца 10 дней   |    Скачан:  0 раз

Полного источника не было: Никогда

Личеров:  8  [  0 KB/s  ]  
 
   
 
 

Crazy ®

Пол:
Не указан
Стаж:
3 месяца 11 дней
Сообщений:
363

Следы бобра / Tracks of the beaver
Год выпуска: 2006
Страна: США
Жанр: Видовой документальный фильм
Продолжительность: 1:30:10
Перевод: He требуется
Русские субтитры: нет
Дополнительная информация по переводу: перевод в данном видовом фильме не несет значимой смысловой нагрузки. Здесь комментарий используется лишь для обозначения отдельных ж.д. участков пути и характеристики локомотивов. Объем видео с комментариями незначителен и не превышает 2% от общего размера DVD, а их игнорирование не снижает эстетической ценности представленного материала.
Режиссер: ред./red. Highball production/ Хaйболл продакшен
Описание: Именитый видео оператор Петер Крук приглашает вас в увлекательное путешествие по главной линии Тихоокеанской железной дороги в Британской Колумбии, Канада. Чудо на великолепном пейзаже Канадских Скал и Селкерк Гор, познание сногсшибательной красоты бескрайних ландшафтов, дополненных медведями, горными козлами. лосями, горными овцами, Лысыми Орлами и Оспрей. В этом путешествии вам предстоит проложить путь через самый длинный туннель в Западном полушарии Mount MacDonald и проникнуться невероятным инженерным искусством спиральных туннелей.
Доп. информация: Фильм - обладатель престижной премии Silver Telly Award, 2006 года и является частью 4-х дискового комплекта "Канада по железной дороге" : видео-коллекции о легендарных поездах, пересекающих сказочно-живописные просторы Канады.
Путешествие начинается по "Следам бобра" - главному пути Тихоокеанской Транс-Канадской железно-дорожной магистрали (диск № 1) и продолжается здесь:
Диск № 2 - Желтоголовая зима / A Yellowhead Winter - http://cybertorrent.ru/viewtopic.php?t=3510646
Диск № 3 - Сердце скал / Heart of the Rockies - http://cybertorrent.ru/viewtopic.php?t=3533835
Диск № 4 - Долина и перевал Роджера / Mountan Sub & Rogers Pass - http://cybertorrent.ru/viewtopic.php?t=4791399
Качество: DVD5
Формат: DVD-Video
Видео кодек: MPEG-2
Аудио кодек: PCM
Видео (анаморф): NTSC 4:3; 720x540 (1.3:1) VBR, 29 970 fps
Аудио: PCM, 2 ch, 1536 Kbps, 48.0 KHz,

DVDInfo

Title: Локальный диск
Size: 3.60 Gb ( 3 776 562 KBytes ) - DVD-5
Enabled regions: 1, 2, 3, 4, 5, 6, 8
VTS_01 :
Play Length: 01:30:10
Video: NTSC 4:3 (720x480) VBR
Audio:
Not specified (LinearPCM, 2 ch)

Отчет MediaInfo

Полное имя : I:\CEEDING FOLDER 124 gb\A CANADIAN RAIL ADVENTURE\BEAVERFINAL\VIDEO_TS\VIDEO_TS.BUP
Формат : DVD Video
Профиль формата : Menu
Размер файла : 14,0 Кбайт
Режим общего битрейта : Переменный
Видео
Идентификатор : 224 (0xE0)
Формат : MPEG Video
Версия формата : Version 2
Вид битрейта : Переменный
Ширина : 720 пикселей
Высота : 480 пикселей
Соотношение сторон : 4:3
Частота кадров : 29,970 кадров/сек
Стандарт вещания : NTSC
Метод сжатия : С потерями
Текст
Формат : RLE
Формат/Информация : Run-length encoding
Битовая глубина : 2 бит
Общее
Полное имя : I:\CEEDING FOLDER 124 gb\A CANADIAN RAIL ADVENTURE\BEAVERFINAL\VIDEO_TS\VIDEO_TS.IFO
Формат : DVD Video
Профиль формата : Menu
Размер файла : 14,0 Кбайт
Режим общего битрейта : Переменный
Видео
Идентификатор : 224 (0xE0)
Формат : MPEG Video
Версия формата : Version 2
Вид битрейта : Переменный
Ширина : 720 пикселей
Высота : 480 пикселей
Соотношение сторон : 4:3
Частота кадров : 29,970 кадров/сек
Стандарт вещания : NTSC
Метод сжатия : С потерями
Текст
Формат : RLE
Формат/Информация : Run-length encoding
Битовая глубина : 2 бит
Общее
Полное имя : I:\CEEDING FOLDER 124 gb\A CANADIAN RAIL ADVENTURE\BEAVERFINAL\VIDEO_TS\VTS_01_0.BUP
Формат : DVD Video
Профиль формата : Program
Размер файла : 68,0 Кбайт
Продолжительность : 1 ч. 30 м.
Режим общего битрейта : Переменный
Общий поток : 103 бит/сек
Видео
Идентификатор : 224 (0xE0)
Формат : MPEG Video
Версия формата : Version 2
Продолжительность : 1 ч. 30 м.
Вид битрейта : Переменный
Ширина : 720 пикселей
Высота : 480 пикселей
Соотношение сторон : 4:3
Частота кадров : 29,970 кадров/сек
Стандарт вещания : NTSC
Метод сжатия : С потерями
Аудио
Идентификатор : 0 (0x0)
Формат : PCM
Продолжительность : 1 ч. 30 м.
Каналы : 2 канала
Частота : 48,0 КГц
Меню
Продолжительность : 1 ч. 30 м.
00:00:00.000 : Chapter 1
00:00:10.000 : Chapter 2
00:00:52.000 : Chapter 3
00:05:09.500 : Chapter 4
00:06:43.500 : Chapter 5
00:08:13.000 : Chapter 6
00:09:32.000 : Chapter 7
00:10:43.500 : Chapter 8
00:13:51.000 : Chapter 9
00:14:41.500 : Chapter 10
00:17:24.000 : Chapter 11
00:20:34.500 : Chapter 12
00:23:00.500 : Chapter 13
00:25:13.500 : Chapter 14
00:30:26.000 : Chapter 15
00:37:41.000 : Chapter 16
00:39:15.500 : Chapter 17
00:42:45.000 : Chapter 18
00:46:17.000 : Chapter 19
00:48:27.000 : Chapter 20
00:50:12.500 : Chapter 21
00:52:00.000 : Chapter 22
00:54:26.000 : Chapter 23
00:57:07.500 : Chapter 24
00:59:22.000 : Chapter 25
01:01:49.500 : Chapter 26
01:04:21.000 : Chapter 27
01:06:15.000 : Chapter 28
01:08:37.500 : Chapter 29
01:10:09.000 : Chapter 30
01:12:01.500 : Chapter 31
01:15:19.000 : Chapter 32
01:17:53.500 : Chapter 33
01:20:01.500 : Chapter 34
01:22:43.500 : Chapter 35
01:26:30.000 : Chapter 36
01:30:03.000 : Chapter 37
List (Audio) : 0
Общее
Полное имя : I:\CEEDING FOLDER 124 gb\A CANADIAN RAIL ADVENTURE\BEAVERFINAL\VIDEO_TS\VTS_01_0.IFO
Формат : DVD Video
Профиль формата : Program
Размер файла : 68,0 Кбайт
Продолжительность : 1 ч. 30 м.
Режим общего битрейта : Переменный
Общий поток : 103 бит/сек
Видео
Идентификатор : 224 (0xE0)
Формат : MPEG Video
Версия формата : Version 2
Продолжительность : 1 ч. 30 м.
Вид битрейта : Переменный
Ширина : 720 пикселей
Высота : 480 пикселей
Соотношение сторон : 4:3
Частота кадров : 29,970 кадров/сек
Стандарт вещания : NTSC
Метод сжатия : С потерями
Аудио
Идентификатор : 0 (0x0)
Формат : PCM
Продолжительность : 1 ч. 30 м.
Каналы : 2 канала
Частота : 48,0 КГц
Меню
Продолжительность : 1 ч. 30 м.
00:00:00.000 : Chapter 1
00:00:10.000 : Chapter 2
00:00:52.000 : Chapter 3
00:05:09.500 : Chapter 4
00:06:43.500 : Chapter 5
00:08:13.000 : Chapter 6
00:09:32.000 : Chapter 7
00:10:43.500 : Chapter 8
00:13:51.000 : Chapter 9
00:14:41.500 : Chapter 10
00:17:24.000 : Chapter 11
00:20:34.500 : Chapter 12
00:23:00.500 : Chapter 13
00:25:13.500 : Chapter 14
00:30:26.000 : Chapter 15
00:37:41.000 : Chapter 16
00:39:15.500 : Chapter 17
00:42:45.000 : Chapter 18
00:46:17.000 : Chapter 19
00:48:27.000 : Chapter 20
00:50:12.500 : Chapter 21
00:52:00.000 : Chapter 22
00:54:26.000 : Chapter 23
00:57:07.500 : Chapter 24
00:59:22.000 : Chapter 25
01:01:49.500 : Chapter 26
01:04:21.000 : Chapter 27
01:06:15.000 : Chapter 28
01:08:37.500 : Chapter 29
01:10:09.000 : Chapter 30
01:12:01.500 : Chapter 31
01:15:19.000 : Chapter 32
01:17:53.500 : Chapter 33
01:20:01.500 : Chapter 34
01:22:43.500 : Chapter 35
01:26:30.000 : Chapter 36
01:30:03.000 : Chapter 37
List (Audio) : 0
Общее
Полное имя : I:\CEEDING FOLDER 124 gb\A CANADIAN RAIL ADVENTURE\BEAVERFINAL\VIDEO_TS\VTS_01_0.VOB
Формат : MPEG-PS
Размер файла : 33,5 Мбайт
Продолжительность : 30 с.
Режим общего битрейта : Переменный
Общий поток : 9360 Кбит/сек
Видео
Идентификатор : 224 (0xE0)
Формат : MPEG Video
Версия формата : Version 2
Профиль формата : Main@Main
Параметр BVOP формата : Да
Параметр матрицы формата : Выборочная
Параметр GOP формата : M=3, N=15
Продолжительность : 1 с. 1 мс.
Вид битрейта : Переменный
Битрейт : 7638 Кбит/сек
Максимальный битрейт : 8000 Кбит/сек
Ширина : 720 пикселей
Высота : 480 пикселей
Соотношение сторон : 4:3
Частота кадров : 29,970 кадров/сек
Стандарт вещания : NTSC
Цветовое пространство : YUV
Субдискретизация насыщенности : 4:2:0
Битовая глубина : 8 бит
Тип развёртки : Чересстрочная
Порядок развёртки : Верхнее поле первое
Метод сжатия : С потерями
Бит/(Пиксели*Кадры) : 0.737
Временной код первого кадра : 00:00:00:00
Оригинал временного кода : Group of pictures header
Размер потока : 933 Кбайт (3%)
Основные цвета : BT.601 NTSC
Характеристики трансфера : BT.601
Коэффициенты матрицы : BT.601
Аудио
Идентификатор : 189 (0xBD)-160 (0xA0)
Формат : PCM
Параметр Endianness формата : Big
Параметр Sign формата : Signed
Режим смешивания : DVD-Video
Продолжительность : 30 с.
Вид битрейта : Постоянный
Битрейт : 1536 Кбит/сек
Каналы : 2 канала
Частота : 48,0 КГц
Битовая глубина : 16 бит
Размер потока : 5,50 Мбайт (16%)
Текст
Идентификатор : 189 (0xBD)-32 (0x20)
Формат : RLE
Формат/Информация : Run-length encoding
Режим смешивания : DVD-Video
Меню
Общее
Полное имя : I:\CEEDING FOLDER 124 gb\A CANADIAN RAIL ADVENTURE\BEAVERFINAL\VIDEO_TS\VTS_01_1.VOB
Формат : MPEG-PS
Размер файла : 1024 Мбайт
Продолжительность : 25 м.
Режим общего битрейта : Переменный
Общий поток : 5529 Кбит/сек
Видео
Идентификатор : 224 (0xE0)
Формат : MPEG Video
Версия формата : Version 2
Профиль формата : Main@Main
Параметр BVOP формата : Да
Параметр матрицы формата : Выборочная
Параметр GOP формата : M=3, N=15
Продолжительность : 25 м.
Вид битрейта : Переменный
Битрейт : 3883 Кбит/сек
Максимальный битрейт : 7000 Кбит/сек
Ширина : 720 пикселей
Высота : 480 пикселей
Соотношение сторон : 4:3
Частота кадров : 29,970 кадров/сек
Стандарт вещания : NTSC
Цветовое пространство : YUV
Субдискретизация насыщенности : 4:2:0
Битовая глубина : 8 бит
Тип развёртки : Чересстрочная
Порядок развёртки : Нижнее поле первое
Метод сжатия : С потерями
Бит/(Пиксели*Кадры) : 0.375
Временной код первого кадра : 00:00:00:00
Оригинал временного кода : Group of pictures header
Размер потока : 719 Мбайт (70%)
Основные цвета : BT.601 NTSC
Характеристики трансфера : BT.601
Коэффициенты матрицы : BT.601
Аудио
Идентификатор : 189 (0xBD)-160 (0xA0)
Формат : PCM
Параметр Endianness формата : Big
Параметр Sign формата : Signed
Режим смешивания : DVD-Video
Продолжительность : 25 м.
Вид битрейта : Постоянный
Битрейт : 1536 Кбит/сек
Каналы : 2 канала
Частота : 48,0 КГц
Битовая глубина : 16 бит
Размер потока : 284 Мбайт (28%)
Меню
Общее
Полное имя : I:\CEEDING FOLDER 124 gb\A CANADIAN RAIL ADVENTURE\BEAVERFINAL\VIDEO_TS\VTS_01_2.VOB
Формат : MPEG-PS
Размер файла : 1024 Мбайт
Продолжительность : 25 м.
Режим общего битрейта : Переменный
Общий поток : 5666 Кбит/сек
Видео
Идентификатор : 224 (0xE0)
Формат : MPEG Video
Версия формата : Version 2
Профиль формата : Main@Main
Параметр BVOP формата : Да
Параметр матрицы формата : Выборочная
Параметр GOP формата : M=3, N=15
Продолжительность : 25 м.
Вид битрейта : Переменный
Битрейт : 4017 Кбит/сек
Максимальный битрейт : 7000 Кбит/сек
Ширина : 720 пикселей
Высота : 480 пикселей
Соотношение сторон : 4:3
Частота кадров : 29,970 кадров/сек
Стандарт вещания : NTSC
Цветовое пространство : YUV
Субдискретизация насыщенности : 4:2:0
Битовая глубина : 8 бит
Тип развёртки : Чересстрочная
Порядок развёртки : Нижнее поле первое
Метод сжатия : С потерями
Бит/(Пиксели*Кадры) : 0.388
Временной код первого кадра : 00:25:52:00
Оригинал временного кода : Group of pictures header
Размер потока : 726 Мбайт (71%)
Основные цвета : BT.601 NTSC
Характеристики трансфера : BT.601
Коэффициенты матрицы : BT.601
Аудио
Идентификатор : 189 (0xBD)-160 (0xA0)
Формат : PCM
Параметр Endianness формата : Big
Параметр Sign формата : Signed
Режим смешивания : DVD-Video
Продолжительность : 25 м.
Вид битрейта : Постоянный
Битрейт : 1536 Кбит/сек
Каналы : 2 канала
Частота : 48,0 КГц
Битовая глубина : 16 бит
Задержка видео : -582 мс.
Размер потока : 278 Мбайт (27%)
Меню
Общее
Полное имя : I:\CEEDING FOLDER 124 gb\A CANADIAN RAIL ADVENTURE\BEAVERFINAL\VIDEO_TS\VTS_01_3.VOB
Формат : MPEG-PS
Размер файла : 1024 Мбайт
Продолжительность : 24 м.
Режим общего битрейта : Переменный
Общий поток : 5763 Кбит/сек
Видео
Идентификатор : 224 (0xE0)
Формат : MPEG Video
Версия формата : Version 2
Профиль формата : Main@Main
Параметр BVOP формата : Да
Параметр матрицы формата : Выборочная
Параметр GOP формата : M=3, N=15
Продолжительность : 24 м.
Вид битрейта : Переменный
Битрейт : 4112 Кбит/сек
Максимальный битрейт : 7000 Кбит/сек
Ширина : 720 пикселей
Высота : 480 пикселей
Соотношение сторон : 4:3
Частота кадров : 29,970 кадров/сек
Стандарт вещания : NTSC
Цветовое пространство : YUV
Субдискретизация насыщенности : 4:2:0
Битовая глубина : 8 бит
Тип развёртки : Чересстрочная
Порядок развёртки : Нижнее поле первое
Метод сжатия : С потерями
Бит/(Пиксели*Кадры) : 0.397
Временной код первого кадра : 00:51:06:15
Оригинал временного кода : Group of pictures header
Размер потока : 730 Мбайт (71%)
Основные цвета : BT.601 NTSC
Характеристики трансфера : BT.601
Коэффициенты матрицы : BT.601
Аудио
Идентификатор : 189 (0xBD)-160 (0xA0)
Формат : PCM
Параметр Endianness формата : Big
Параметр Sign формата : Signed
Режим смешивания : DVD-Video
Продолжительность : 24 м.
Вид битрейта : Постоянный
Битрейт : 1536 Кбит/сек
Каналы : 2 канала
Частота : 48,0 КГц
Битовая глубина : 16 бит
Задержка видео : -703 мс.
Размер потока : 273 Мбайт (27%)
Меню
Общее
Полное имя : I:\CEEDING FOLDER 124 gb\A CANADIAN RAIL ADVENTURE\BEAVERFINAL\VIDEO_TS\VTS_01_4.VOB
Формат : MPEG-PS
Размер файла : 583 Мбайт
Продолжительность : 14 м.
Режим общего битрейта : Переменный
Общий поток : 5709 Кбит/сек
Видео
Идентификатор : 224 (0xE0)
Формат : MPEG Video
Версия формата : Version 2
Профиль формата : Main@Main
Параметр BVOP формата : Да
Параметр матрицы формата : Выборочная
Параметр GOP формата : M=3, N=15
Продолжительность : 14 м.
Вид битрейта : Переменный
Битрейт : 4060 Кбит/сек
Максимальный битрейт : 7000 Кбит/сек
Ширина : 720 пикселей
Высота : 480 пикселей
Соотношение сторон : 4:3
Частота кадров : 29,970 кадров/сек
Стандарт вещания : NTSC
Цветовое пространство : YUV
Субдискретизация насыщенности : 4:2:0
Битовая глубина : 8 бит
Тип развёртки : Чересстрочная
Порядок развёртки : Нижнее поле первое
Метод сжатия : С потерями
Бит/(Пиксели*Кадры) : 0.392
Временной код первого кадра : 01:15:55:00
Оригинал временного кода : Group of pictures header
Размер потока : 414 Мбайт (71%)
Основные цвета : BT.601 NTSC
Характеристики трансфера : BT.601
Коэффициенты матрицы : BT.601
Аудио
Идентификатор : 189 (0xBD)-160 (0xA0)
Формат : PCM
Параметр Endianness формата : Big
Параметр Sign формата : Signed
Режим смешивания : DVD-Video
Продолжительность : 14 м.
Вид битрейта : Постоянный
Битрейт : 1536 Кбит/сек
Каналы : 2 канала
Частота : 48,0 КГц
Битовая глубина : 16 бит
Задержка видео : -432 мс.
Размер потока : 157 Мбайт (27%)
Меню

Скриншоты Меню

Скриншоты

[cybertorrent.ru].t1421.torrent 
Торрент: Зарегистрирован [ 2018-02-16 03:41 ] · 178604ED376523B8752BFF0CE60B403BE1943FEA

Скачать .torrent

Скачать

19 KB

Статус: проверено
Скачан: 0 раз
Размер: 3,6 GB
Профиль [ЛС]
Показать сообщения:    

Текущее время: 26-Май 17:21

Часовой пояс: UTC ± 0



Вы не можете начинать темы
Вы не можете отвечать на сообщения
Вы не можете редактировать свои сообщения
Вы не можете удалять свои сообщения
Вы не можете голосовать в опросах
Вы не можете прикреплять файлы к сообщениям
Вы можете скачивать файлы