Статистика раздачи
Размер:  3,82 GB   |    Зарегистрирован:  3 месяца 10 дней   |    Скачан:  0 раз

Полного источника не было: Никогда

 
   
 
 

android ®

Пол:
Не указан
Стаж:
3 месяца 11 дней
Сообщений:
220

Черепашки мутанты ниндзя / Teenage Mutant Ninja Turtles
Страна: США
Жанр: фантастика, боевик
Продолжительность: 00:22:15
Год выпуска: 1992
Перевод: Профессиональный (дублированный) 2x2
Русские субтитры: нет
Режиссер: Брюно-Рене Юше / Bruno-René Huchez
Роли дублировали: Виктор Петров, Вадим Андреев, Элеонора Прохницкая, Александр Клюквин, Всеволод Абдулов.
Описание: Обожаемая детьми во всем мире героическая четверка, полная неукротимой энергии, отправляется в мультприключения, расправляясь с негодяями, выслеживая злодеев и поглощая пиццу в безостановочном темпе.
Список серий:
01. Tower of Power / Башня черепашьей Силы
02. Rust Never Sleeps / Ржавчина не дремлет
03. A Real Snow Job / Настоящая снежная работа
04. Venice on the Half-Shell / Спасение венеции
05. Artless / Похитители шедевров
06. Ring of Fire / Огненное кольцо
07. The Irish Jig is Up / Приключения черепашек в ирландии
08. Shredder’s New Sword / Новый меч Шреддера
09. The Lost Queen of Atlantis / Королева исчезнувшей Атландиты
10. Turtles on the Orient Express / Черепашки на «Восточном Экспрессе»
11. April Gets in Dutch / Эйприл в затруднительном положении
12. Northern Lights Out / Погасшее северное сияние
13. Elementary, My Dear Turtle / Элементарно, черепашонок
Доп. информация: За предоставление исходников видео спасибо soulstorm. Звук взят с DVD издания от "Мистерия звука", добавлены русские титры с раздачи SerGoLeOne.
Ссылка на предыдущие и альтернативные раздачи: http://cybertorrent.ru/tracker.php?nm=1987
Качество: DVDRip
Формат: AVI
Видео: 624x480 (1.30:1), 23.976 fps, XviD build 73 ~1489 kbps avg, 0.21 bit/pixel
Аудио 1: 48 kHz, AC3 Dolby Digital, 2/0 (L,R) ch, ~192 kbps Rus
Аудио 2: 48 kHz, AC3 Dolby Digital, 2/0 (L,R) ch, ~192 kbps Eng
Субтитры: отсутствуют

Подробные технические данные

General
Complete name : C:\TMNT Vacation in Europe\1. Tower of Power.avi
Format : AVI
Format/Info : Audio Video Interleave
File size : 301 MiB
Duration : 22mn 15s
Overall bit rate : 1 889 Kbps
Writing application : VirtualDubMod 1.5.10.3 (build 2550/release)
Writing library : VirtualDubMod build 2550/release
Video
ID : 0
Format : MPEG-4 Visual
Format profile : Advanced Simple@L5
Format settings, BVOP : 1
Format settings, QPel : No
Format settings, GMC : No warppoints
Format settings, Matrix : Default (H.263)
Codec ID : XVID
Codec ID/Hint : XviD
Duration : 22mn 15s
Bit rate : 1 490 Kbps
Width : 624 pixels
Height : 480 pixels
Display aspect ratio : 4:3
Frame rate : 23.976 fps
Color space : YUV
Chroma subsampling : 4:2:0
Bit depth : 8 bits
Scan type : Progressive
Compression mode : Lossy
Bits/(Pixel*Frame) : 0.208
Stream size : 237 MiB (79%)
Writing library : XviD 73
Audio #1
ID : 1
Format : AC-3
Format/Info : Audio Coding 3
Mode extension : CM (complete main)
Format settings, Endianness : Big
Codec ID : 2000
Duration : 22mn 15s
Bit rate mode : Constant
Bit rate : 192 Kbps
Channel(s) : 2 channels
Channel positions : Front: L R
Sampling rate : 48.0 KHz
Bit depth : 16 bits
Compression mode : Lossy
Stream size : 30.6 MiB (10%)
Alignment : Split accross interleaves
Interleave, duration : 42 ms (1.00 video frame)
Interleave, preload duration : 500 ms
Audio #2
ID : 2
Format : AC-3
Format/Info : Audio Coding 3
Mode extension : CM (complete main)
Format settings, Endianness : Big
Codec ID : 2000
Duration : 22mn 15s
Bit rate mode : Constant
Bit rate : 192 Kbps
Channel(s) : 2 channels
Channel positions : Front: L R
Sampling rate : 48.0 KHz
Bit depth : 16 bits
Compression mode : Lossy
Stream size : 30.6 MiB (10%)
Alignment : Split accross interleaves
Interleave, duration : 42 ms (1.00 video frame)
Interleave, preload duration : 500 ms

Скриншоты

[cybertorrent.ru].t1878.torrent 
Торрент: Зарегистрирован [ 2018-02-16 08:44 ] · 00FDB819C823A4158C8F547E3CE23F83E0015A94

Скачать .torrent

Скачать

20 KB

Статус: проверено
Скачан: 0 раз
Размер: 3,82 GB
Профиль [ЛС]
Показать сообщения:    

Текущее время: 26-Май 17:21

Часовой пояс: UTC ± 0



Вы не можете начинать темы
Вы не можете отвечать на сообщения
Вы не можете редактировать свои сообщения
Вы не можете удалять свои сообщения
Вы не можете голосовать в опросах
Вы не можете прикреплять файлы к сообщениям
Вы можете скачивать файлы