Статистика раздачи
Размер:  548 MB   |    Зарегистрирован:  3 месяца 8 дней   |    Скачан:  0 раз

Полного источника не было: Никогда

Личеров:  1  [  0 KB/s  ]  
 
   
 
 

rocky ®

Пол:
Не указан
Стаж:
3 месяца 9 дней
Сообщений:
256

Хлюпик
Жанр: комедия, приключения
Год выпуска: 2004
Продолжительность: 00:25
Режиссёр: Дмитрий Шадрин
В ролях: Евгений Гаврилов, Татьяна Серова, Иван Шадрин, Роман Ермаков, Дмитрий Луковников, Александр Меллер, Антон Гурьянов, Анатолий Миронов, Анна Марченко, Алексей Волынцев, Александр Прохоров, Алексей Клесов, а также Дмитрий Шадрин, Сергей Веселов и Алекс Калашников
Описание: Компания подростков в разгар "дачного сезона" снимала кино. Но когда по слухам, большая часть материала оказалась утерянной, события приобрели неожиданный поворот. Потерявшись в гонке за желаемым, возникает вопрос - Как получить главный приз, не попадая при этом в водоворот горячих событий местного масштаба?Доп. информация: Знаете ли Вы, что...
Это первая, авторская работа Российских кинокаскадеров из Нижнего Новгорода. Была создана в 2004 году, с целью дальнейшего развития действий в киноиндустрии. Под впечатлением ЭКСПЛУАТАЦИОННОГО КИНО, любителями которого являются также Квентин Тарантино и Роберт Родригес, создатели стилизовали фильмокопию класса Б для кинотеатров среднего звена.
На фирменной ДВД обложке красуется надпись, породившая много слухов. Один из которых – Автор кинопроекта сам придумал свой жанр – МокБастер. На самом деле этот жанр был много лет назад. Мокбастер (малобюджетный фильм, охватывающий множество различных жанров, от комедий и фильмов ужасов до боевиков и мелодрам.
Уникальную в России хореографию поединков разрабатывали, выполняли и снимали, а также монтировали непосредственно сами создатели кинокартины.
На финальную битву в ремонтном зале ушло 3 месяца съемочно-постановочных работ.
Некоторые сцены были переписаны с точностью до наоборот . Это заметно на многих диалогах фильма.
Специальный тизер «+20, - 35 градусов, осадки 100%», который можно увидеть только в финале ХЛЮПИКа, установил новую традицию — Заканчивать фильм тизером следующего кинопроекта студии Дмитрия Шадрина.
В начале фильма идет заставка, представляющая кинокартину, появляющаяся исключительно в ГРАЙНДХАУСАХ - кинотеатрах категории Б.
В финале же вместо "родных" титров КОНЕЦ ФИЛЬМА использован фрагмент THE END из индийской фильмокопии ТАНЦОР ДИСКО. Из-за сильной потасканности и рваности пленки, киномеханики порой подклеивали недостающие куски из совершенно других фильмов. Та же идея была использована в «Монологе от лица режиссера». Эта мысль пришла Дмитрию Шадрину после того как еще в 80х, в киноаппаратной кинотеатра, он вместе с другом склеивал куски из разных фильмов и прокручивал прямо в середине демонстрации фильма.
Сэмпл: http://multi-up.com/989559
Качество видео: HDRip
Формат видео: MKV
Видео: V_MPEG4/ISO/AVC, 1280*768 px, 16:9, 25 к/с, 2864 Кбит/сек
Аудио: MP2, 128 Кбит/сек, 2 канала, 44,1 КГц

MediaInfo

Общее
Уникальный идентификатор : 237716824095906260578488015752064073667 (0xB2D69850AE5411E0376249AF96DAFFC3)
Полное имя : D:\РуТрекер ХЛЮПИК\ХЛЮПИК - 1й фильм Дмитрия Шадрина.mkv
Формат : Matroska
Версия формата : Version 2
Размер файла : 548 Мбайт
Продолжительность : 25 м.
Общий поток : 3053 Кбит/сек
Программа кодирования : Lavf52.0.0
Библиотека кодирования : Lavf52.0.0
Видео
Идентификатор : 1
Формат : AVC
Формат/Информация : Advanced Video Codec
Идентификатор кодека : V_MPEG4/ISO/AVC
Продолжительность : 25 м.
Битрейт : 2864 Кбит/сек
Ширина : 1280 пикселей
Высота : 768 пикселей
Соотношение сторон : 16:9
Режим частоты кадров : Постоянный
Частота кадров : 25,000 кадров/сек
Бит/(Пиксели*Кадры) : 0.117
Размер потока : 514 Мбайт (94%)
Default : Да
Forced : Нет
Аудио
Идентификатор : 2
Формат : MPEG Audio
Версия формата : Version 1
Профиль формата : Layer 2
Идентификатор кодека : A_MPEG/L2
Идентификатор кодека/Подсказка : MP2
Продолжительность : 25 м.
Вид битрейта : Постоянный
Битрейт : 128 Кбит/сек
Каналы : 2 канала
Частота : 44,1 КГц
Метод сжатия : С потерями
Размер потока : 23,0 Мбайт (4%)
Default : Да
Forced : Нет

Скриншот c названием фильма

[cybertorrent.ru].t1944.torrent 
Торрент: Зарегистрирован [ 2018-02-16 08:44 ] · EA4A6B1BB425431B923780C15F58CDB5F569B6BE

Скачать .torrent

Скачать

11 KB

Статус: проверено
Скачан: 0 раз
Размер: 548 MB
Профиль [ЛС]
Показать сообщения:    

Текущее время: 24-Май 19:35

Часовой пояс: UTC ± 0



Вы не можете начинать темы
Вы не можете отвечать на сообщения
Вы не можете редактировать свои сообщения
Вы не можете удалять свои сообщения
Вы не можете голосовать в опросах
Вы не можете прикреплять файлы к сообщениям
Вы можете скачивать файлы