Статистика раздачи
Размер:  2,38 GB   |    Зарегистрирован:  3 месяца 10 дней   |    Скачан:  0 раз

Полного источника не было: Никогда

 
   
 
 

FibYar ®

Пол:
Не указан
Стаж:
3 месяца 11 дней
Сообщений:
227

1421: Когда Китай открыл Америку?
1421: The Year China Discovered America?- Дата/Год выпуска: 2004
Страна: Великобритания
Жанр: альтернативная история
Продолжительность: 01:54:37 (00:57:33 + 00:57:04)
Перевод: Профессиональный (двухголосый закадровый)
Доп. инфо о переводе: ТПО "Ред Медиа"
Русские субтитры: нет
Режиссер: Дэвид Уоллас / David Wallase
Телеканал: 365 днейОписание: По одноименной книге Гэвина Мензиса / Gavin Menzies (2002).В 1480 году конфуцианские придворные разграбили императорский архивный материал. Их целью было уничтожить все следы одного из величайших достижений династии Мин. Из дыма и пепла сжигаемых рукописей родилась тайна, которой предстоит дразнить мир ложными надеждами.
Насколько далеко императорский флот Китая раздвинул границы известного ему мира? Может, он даже достиг Америки раньше Христофора Колумба? (из предисловия к фильму)
Доп. информация: DVB-S. 2-х-серийный телефильм.
качество: DVB
формат: MKV
Видео: MPEG Video 2, 720x576@768x576 (4:3), 25 fps, ~2850 kbps avg, 0.275 bit/pixel
Аудио: MPEG Audio 2, 2 ch, 48 kHz, ~192.00 kbps avg

Список выпусков/серий

01. Эпизод 1: 1421: Когда Китай открыл Америку? / 1421 The Year China Discovered America (2004)
02. Эпизод 2: 1421: Когда Китай открыл Америку? - Новые теории / 1421 The Year China Discovered America: The New Theories (2004)

MediaInfo

Общее
Уникальный идентификатор : 189450818414226619319842992664108087622 (0x8E86E681BEE863DCA974B9D748E83946)
Полное имя : E:\My Torrents 2\[apreder]1421_The_Year_China_Discovered_America\01. 1421_The_Year_China_Discovered_America_ep.1(2004)DVB.mkv
Формат : Matroska
Версия формата : Version 2
Размер файла : 1,25 Гбайт
Продолжительность : 57 м.
Режим общего битрейта : Переменный
Общий поток : 3104 Кбит/сек
Дата кодирования : UTC 2014-08-16 13:38:59
Программа кодирования : mkvmerge v7.1.0 ('Good Love') 64bit built on Jul 27 2014 13:06:55
Библиотека кодирования : libebml v1.3.0 + libmatroska v1.4.1
Видео
Идентификатор : 1
Формат : MPEG Video
Версия формата : Version 2
Профиль формата : Main@Main
Параметр BVOP формата : Нет
Параметр матрицы формата : Выборочная
Идентификатор кодека : V_MPEG2
Идентификатор кодека/Информация : MPEG 1 or 2 Video
Продолжительность : 57 м.
Вид битрейта : Переменный
Битрейт : 2850 Кбит/сек
Максимальный битрейт : 6340 Кбит/сек
Ширина : 720 пикселей
Высота : 576 пикселей
Соотношение сторон : 4:3
Режим частоты кадров : Постоянный
Частота кадров : 25,000 кадров/сек
Стандарт вещания : PAL
Цветовое пространство : YUV
Субдискретизация насыщенности : 4:2:0
Битовая глубина : 8 бит
Тип развёртки : Чересстрочная
Порядок развёртки : Верхнее поле первое
Метод сжатия : С потерями
Бит/(Пиксели*Кадры) : 0.275
Временной код первого кадра : 00:00:00:00
Оригинал временного кода : Group of pictures header
Размер потока : 1,15 Гбайт (92%)
Default : Да
Forced : Нет
Аудио
Идентификатор : 2
Формат : MPEG Audio
Версия формата : Version 1
Профиль формата : Layer 2
Идентификатор кодека : A_MPEG/L2
Идентификатор кодека/Подсказка : MP2
Продолжительность : 57 м.
Вид битрейта : Постоянный
Битрейт : 192 Кбит/сек
Каналы : 2 канала
Частота : 48,0 КГц
Метод сжатия : С потерями
Размер потока : 79,0 Мбайт (6%)
Язык : Russian
Default : Да
Forced : Нет

Скриншоты


Резервные скриншоты


-

Внимание! Раздача ведётся путём добавления новых выпусков

Внимание! Раздача ведётся путём добавления новых выпусков; при каждом добавлении создаётся новый торрент. Чтобы начать докачку нового выпуска, пользователям необходимо сделать следующее:
(1) остановить скачивание,
(2) удалить старый торрент у себя из клиента (старые серии удалять не надо),
(3) скачать новый торрент и запустить его у себя в клиенте вместо старого, при этом указать клиенту путь в старую папку куда и должно происходить скачивание новых выпусков.
Ваш клиент при этом должен произвести хеширование (проверку) старой папки (если не производит сам - помогите ему сделать это). В результате он будет докачивать только те выпуски, которых у Вас ещё нет. Старые выпуски при этом не удаляются, а продолжают раздаваться!
Eсли Вы уже удалили старые выпуски, то предотвратить их повторную закачку можно, сняв галочки в соответствующих местах при запуске нового торрента. По возможности, желательно не удалять старые выпуски как можно дольше, чтобы релизёр не только продолжал раздавать старые выпуски, но и смог сконцентрироваться на новых.
-[1'638]
[cybertorrent.ru].t1955.torrent 
Торрент: Зарегистрирован [ 2018-02-16 08:44 ] · D80D0C7B98AC644B8A7EE3104C13FDB15537BD85

Скачать .torrent

Скачать

13 KB

Статус: проверено
Скачан: 0 раз
Размер: 2,38 GB
Профиль [ЛС]
Показать сообщения:    

Текущее время: 26-Май 19:46

Часовой пояс: UTC ± 0



Вы не можете начинать темы
Вы не можете отвечать на сообщения
Вы не можете редактировать свои сообщения
Вы не можете удалять свои сообщения
Вы не можете голосовать в опросах
Вы не можете прикреплять файлы к сообщениям
Вы можете скачивать файлы