Статистика раздачи
Размер:  384 MB   |    Зарегистрирован:  3 месяца 8 дней   |    Скачан:  0 раз

Полного источника не было: Никогда

 
   
 
 

Бона ®

Пол:
Не указан
Стаж:
3 месяца 9 дней
Сообщений:
395

Профессия — репортер. 13 друзей хунты
Дата/Год выпуска: 24.08.2014
Страна: Россия
Жанр: Документальный
Продолжительность: 00:30:02
Перевод: Не требуется
Телеканал: НТВ
Описание: Предатели на экспорт. Сколько стоит любовь к новой родине? Кто пишет сценарий для пятой колонны и что оплачивается отдельно? Кто стоит за скандальной акцией на вершине московской высотки и кто никогда не простит 13 друзей хунты? «13 друзей хунты» — фильм из цикла «Профессия — репортер».
качество: SATRip
формат: AVI
Видео: MPEG4, XviD, 720x448 (1.607), 25.000 fps, ~1649 Kbps, 0.205 bit/pixel
Аудио: Layer 3, 48.0 KHz, 2 ch, 128 Kbps

MediaInfo

Формат : AVI
Формат/Информация : Audio Video Interleave
Размер файла : 384 Мбайт
Продолжительность : 30 м.
Общий поток : 1787 Кбит/сек
Видео
Идентификатор : 0
Формат : MPEG-4 Visual
Профиль формата : Advanced Simple@L5
Параметр BVOP формата : 2
Параметр QPel формата : Нет
Параметр GMC формата : Без точки перехода
Параметр матрицы формата : Default (H.263)
Идентификатор кодека : XVID
Идентификатор кодека/Подсказка : XviD
Продолжительность : 30 м.
Битрейт : 1649 Кбит/сек
Ширина : 720 пикселей
Высота : 448 пикселей
Соотношение сторон : 16:10
Частота кадров : 25,000 кадров/сек
Цветовое пространство : YUV
Субдискретизация насыщенности : 4:2:0
Битовая глубина : 8 бит
Тип развёртки : Прогрессивная
Метод сжатия : С потерями
Бит/(Пиксели*Кадры) : 0.205
Размер потока : 354 Мбайт (92%)
Библиотека кодирования : XviD 64
Аудио
Идентификатор : 1
Формат : MPEG Audio
Версия формата : Version 1
Профиль формата : Layer 3
Идентификатор кодека : 55
Идентификатор кодека/Подсказка : MP3
Продолжительность : 30 м.
Вид битрейта : Постоянный
Битрейт : 128 Кбит/сек
Каналы : 2 канала
Частота : 48,0 КГц
Метод сжатия : С потерями
Задержка видео : 24 мс.
Размер потока : 27,5 Мбайт (7%)
Выравнивание : Соединение по промежуткам
Продолжительность промежутка : 40 мс. (1,00 видеокадр)
Время предзагрузки промежутка : 504 мс.

Скриншоты

[cybertorrent.ru].t1960.torrent 
Торрент: Зарегистрирован [ 2018-02-16 08:44 ] · 12F08192542114435F1BDD8FCE1AAF5770ECC509

Скачать .torrent

Скачать

16 KB

Статус: проверено
Скачан: 0 раз
Размер: 384 MB
Профиль [ЛС]
Показать сообщения:    

Текущее время: 24-Май 19:40

Часовой пояс: UTC ± 0



Вы не можете начинать темы
Вы не можете отвечать на сообщения
Вы не можете редактировать свои сообщения
Вы не можете удалять свои сообщения
Вы не можете голосовать в опросах
Вы не можете прикреплять файлы к сообщениям
Вы можете скачивать файлы