Статистика раздачи
Размер:  2,15 GB   |    Зарегистрирован:  3 месяца 11 дней   |    Скачан:  0 раз

Полного источника не было: Никогда

Личеров:  1  [  0 KB/s  ]  
 
   
 
 

koljan ®

Пол:
Не указан
Стаж:
3 месяца 12 дней
Сообщений:
472

Встреча с инопланетянами (Сезон 3: Серии 2,4-6) / Alien Encounters
Дата/Год выпуска: 2014
Страна: США
Жанр: Документальный ТВ-сериал
Продолжительность: 4 ~00:43:00
Перевод: Профессиональный (одноголосый закадровый)
Русские субтитры: нет
Режиссер: Эмре Сахин / Emre Sahin
Телеканал: Discovery Science
Описание: Как бы мир реагировал на инопланетную расу прилетевшую на Землю ? Как бы человеческая раса была изменена пришельцами ? Какое бы влияние на человека оказал контакт с инопланетянами ? 74 процента американцев верят в существование инопланетян, и пятнадцать миллионов людей верят, что они фактически вступали в контакт с пришельцами. Большинство населения планеты интересуют животрепещущие вопросы о жизни за пределами земли и её влияние на человечество. Третий сезон "Встреч с инопланетянами" продолжает поднимать гипотетические вопросы, и исследовать потенциальное воздействие инопланетян на людей.
Информация по эпизодом взята WikipediA - Alien Encounters
Выпуск доступен благодаря

качество: SATRip
формат: AVI
Видео: 720x400 (1.80:1), 25 fps, XviD build 73 ~1587 kbps avg, 0.22 bit/pixel
Аудио: 48 kHz, MPEG Layer 3, 2 ch, ~192.00 kbps avg
Добавлены серии 4 - 6

Список выпусков/серий

1. Аура / Aura - Десять лет спустя после взрыва инопланетного космического корабля, промышленность начинает получать доход с космических обломков, Пентагон хочет превратить "гибридов" в суперсолдат и турецкий физик находит чертежи для квантового компьютера.
2. Сплетение / The Entanglement - На основе полученных инопланетных инструкций построен мощный квантовый суперкомпьютер "Quincy", и получилось, что "гибриды" - человеческие дети с инопланетным ДНК могут подключиться к нему с помощью только одной своей мысли.
3. Пророчества / The Prophecies - Поскольку все больше "гибридов" подключены к квантовому компьютеру, то они растут более сильными а компьютер становится более самосознательным. Объединенная интеллектуальная элита в состоянии грызть беспрецедентные данные и вычислять будущее. Некоторые из них будут использовать свои способности в злых целях.
4. Обострение / The Escalation - Их присутствие на нашей планете растет. Они окружают нас. Квантовая сеть соединяет поколения гибридов с квантовым супер компьютером. Некоторые предполагают, что квантовые эффекты происходят даже в человеческом мозге. Люди так же присоединяются, и тогда мощь сети начинает расти.
5. Война / The War - Мы вот вот потеряем контроль над планетой Земля. Военные отказываются сдаться. Их квантовый компьютер запускает беспилотник, который должен поразить сердце инопланетной сети. Война между двумя супер компьютерами началась..
6. Машина времени / The Time Machine - Между квантовым компьютером и супер-компьютером, контролируемым людьми, начинается война. Армия США пытается нейтрализовать гибридных детей электромагнитными импульсами. Куинси - самый могущественный компьютерный разум человечества уничтожен ударом ракеты. Земляне потеряли символ эпохи, величайшего лидера. На его месте образовалась пустота, и людям предстоит понять, чем же её заполнить, кому суждено стать его приемником. Центральный процессор превратился в груду мусора, и мировая сеть инопланетян погрузилась в тишину. Но спустя 4 часа все изменилось.

MediaInfo

General
Complete name : E:\Films\Dokumentary\Alien Encounters-Season 3\S3-E04-The Escalation.avi
Format : AVI
Format/Info : Audio Video Interleave
File size : 559 MiB
Duration : 43mn 39s
Overall bit rate : 1 789 Kbps
Writing application : VirtualDubMod 1.5.10.3 | www.virtualdub-fr.org || (build 2550/release)
Writing library : VirtualDubMod build 2550/release
Video
ID : 0
Format : MPEG-4 Visual
Format profile : Advanced Simple@L5
Format settings, BVOP : 2
Format settings, QPel : No
Format settings, GMC : No warppoints
Format settings, Matrix : Custom
Codec ID : XVID
Codec ID/Hint : XviD
Duration : 43mn 39s
Bit rate : 1 587 Kbps
Width : 720 pixels
Height : 400 pixels
Display aspect ratio : 16:9
Frame rate : 25.000 fps
Color space : YUV
Chroma subsampling : 4:2:0
Bit depth : 8 bits
Scan type : Progressive
Compression mode : Lossy
Bits/(Pixel*Frame) : 0.220
Stream size : 496 MiB (89%)
Writing library : XviD 73
Audio
ID : 1
Format : MPEG Audio
Format version : Version 1
Format profile : Layer 3
Codec ID : 55
Codec ID/Hint : MP3
Duration : 43mn 39s
Bit rate mode : Constant
Bit rate : 192 Kbps
Channel(s) : 2 channels
Sampling rate : 48.0 KHz
Compression mode : Lossy
Stream size : 60.0 MiB (11%)
Alignment : Aligned on interleaves
Interleave, duration : 40 ms (1.00 video frame)
Interleave, preload duration : 504 ms
Writing library : LAME3.99r
Encoding settings : -m s -V 4 -q 0 -lowpass 18.6 -b 192

-
Первый сезон 2012 SATRip ----->Встречи с инопланетянами (серии 1-2)Второй сезон HDTVRip 720p ----->Встречи с инопланетянами (серии 1-2)Третий сезон HDTVRip 720p ----->Встречи с инопланетянами (серии 3-6)
[cybertorrent.ru].t1981.torrent 
Торрент: Зарегистрирован [ 2018-02-16 08:44 ] · A19CCA4F8E9A29ED8F444D63983F63FF0B37172D

Скачать .torrent

Скачать

12 KB

Статус: проверено
Скачан: 0 раз
Размер: 2,15 GB
Профиль [ЛС]
Показать сообщения:    

Текущее время: 27-Май 21:25

Часовой пояс: UTC ± 0



Вы не можете начинать темы
Вы не можете отвечать на сообщения
Вы не можете редактировать свои сообщения
Вы не можете удалять свои сообщения
Вы не можете голосовать в опросах
Вы не можете прикреплять файлы к сообщениям
Вы можете скачивать файлы