Статистика раздачи
Размер:  700 MB   |    Зарегистрирован:  3 месяца 12 дней   |    Скачан:  0 раз

Полного источника не было: Никогда

 
   
 
 

lopster ®

Пол:
Не указан
Стаж:
3 месяца 12 дней
Сообщений:
612

Московские каникулы
------------------------------------------------------------------------------
Год выпуска: 1995
Жанр: Романтическая комедия
Продолжительность: 01:25:59.103 (128975 frames)
------------------------------------------------------------------------------
Режиссер: Алла Сурикова
В ролях: · Ирина Селезнева · Леонид Ярмольник · Леонид Якубович · Армен Джигарханян · Лия Ахеджакова · Наталья Гундарева · Олег Табаков · Александр Адабашьян
------------------------------------------------------------------------------
Описание: Богатая итальянка Лучана Фарини едет в Россию на родину предков, где хочет похоронить свою любимую собачку. Легкая детективная интрига, нелепости российского быта и... мы оказываемся свидетелями любви с первого взгляда.
Скрины:

------------------------------------------------------------------------------
Все раздачи фильма: Московские каникулы
------------------------------------------------------------------------------
Доп. информация:

скрытый текст

Награды и примечания:Прокат - с мая 1995 - 749 тыс. зрителей (средняя стоимость билета - 2.6 тыс. руб., собрал 1.4 млрд. руб.).Затраты на производство - 2.250 млрд. руб.Тираж видеокассет - 100 000 (данные "Информкино").1-10 места в хит-параде видеопроката и видеопродаж (07.95-02.96, JoKer).Лиценз на ТВ - 25 млн. руб. (показ по РТВ - 08.03.96).Андрей Макаревич - композитор фильма. Песня "От меня к тебе" прозвучала в исполнении Леонида Ярмольника, однако, вошла в сольную работу А.М. "Женский альбом", безусловно, в авторском исполнении.
------------------------------------------------------------------------------
Качество: TVRip
Видео: 544x432 (1.26:1), 25.000 fps, DivX Codec 5.02 build 484 ~970 kbps avg, 0.17 bit/pixel
Аудио: 44.100 kHz, MPEG Layer 3, 2 ch, ~155.10 kbps avg

MI

Код:Общее
Полное имя : C:\otkat\Видео\Московские каникулы\Московские каникулы.avi
Формат : AVI
Формат/Информация : Audio Video Interleave
Размер файла : 700 Мбайт
Продолжительность : 1 ч. 25 м.
Режим общего битрейта : Переменный
Общий поток : 1138 Кбит/сек
Программа кодирования : Nandub v1.0rc2
Библиотека кодирования : Nandub build 1853/release
Видео
Идентификатор : 0
Формат : MPEG-4 Visual
Параметр BVOP формата : 1
Параметр QPel формата : Нет
Параметр GMC формата : Без точки перехода
Параметр матрицы формата : Default (H.263)
Режим смешивания : Сжатый битовый поток
Идентификатор кодека : DX50
Идентификатор кодека/Подсказка : DivX 5
Продолжительность : 1 ч. 25 м.
Битрейт : 971 Кбит/сек
Ширина : 544 пикселя
Высота : 432 пикселя
Соотношение сторон : 5:4
Частота кадров : 25,000 кадров/сек
Цветовое пространство : YUV
Субдискретизация насыщенности : 4:2:0
Битовая глубина : 8 бит
Тип развёртки : Прогрессивная
Метод сжатия : С потерями
Бит/(Пиксели*Кадры) : 0.165
Размер потока : 597 Мбайт (85%)
Библиотека кодирования : DivX 5.0.2 (UTC 2002-05-16)
Аудио
Идентификатор : 1
Формат : MPEG Audio
Версия формата : Version 1
Профиль формата : Layer 3
Режим : Joint stereo
Расширение режима : MS Stereo
Идентификатор кодека : 55
Идентификатор кодека/Подсказка : MP3
Продолжительность : 1 ч. 25 м.
Продолжительность оригинала : 1 ч. 25 м.
Вид битрейта : Переменный
Битрейт : 155 Кбит/сек
Минимальный битрейт : 96,0 Кбит/сек
Каналы : 2 канала
Частота : 44,1 КГц
Метод сжатия : С потерями
Задержка видео : 26 мс.
Размер потока : 95,4 Мбайт (14%)
Выравнивание : Соединение по промежуткам
Продолжительность промежутка : 26 мс. (0,65 видеокадр)
Время предзагрузки промежутка : 188 мс.
Библиотека кодирования : LAME3.92
Настройки программы : -m j -V 4 -q 2 -lowpass 18.2 --vbr-new -b 96

Скриншоты


------------------------------------------------------------------------------
Мои раздачи:
Все что раздаю:
------------------------------------------------------------------------------

[cybertorrent.ru].t24.torrent 
Торрент: Зарегистрирован [ 2018-02-15 13:57 ] · C64CCFC764BD1010DA5B160E69F2C34DFCE0EBCF

Скачать .torrent

Скачать

14 KB

Статус: проверено
Скачан: 0 раз
Размер: 700 MB
Профиль [ЛС]
Показать сообщения:    

Текущее время: 27-Май 19:48

Часовой пояс: UTC ± 0



Вы не можете начинать темы
Вы не можете отвечать на сообщения
Вы не можете редактировать свои сообщения
Вы не можете удалять свои сообщения
Вы не можете голосовать в опросах
Вы не можете прикреплять файлы к сообщениям
Вы можете скачивать файлы