Статистика раздачи
Размер:  4,48 GB   |    Зарегистрирован:  3 месяца 11 дней   |    Скачан:  0 раз

Полного источника не было: Никогда

 
   
 
 

fill ®

Пол:
Не указан
Стаж:
3 месяца 12 дней
Сообщений:
187

Быстрее, кошечка! Убей, убей! / Faster, Pussycat! Kill! Kill!
Страна: США
Жанр: триллер, комедия, кэмп
Год выпуска: 1965
Продолжительность: 01:23:24
Перевод 1: Профессиональный (многоголосый закадровый)
Перевод 2: Авторский (одноголосый закадровый) Алексеев
Субтитры: нет
Оригинальная аудиодорожка: английский
Режиссер: Расс Мейер / Russ Meyer
В ролях: Тура Сатана, Хаджи, Лори Вильямс, Сью Бернард, Стюарт Ланкастер
Описание: ...Америка 60-х. Пустыня. Классические тачки. Джинсы с высокой талией. Глубокие декольте. Длинные ноги...
Три стриптизёрши чешут из города на дорогих авто, чтобы начать новую жизнь. ВАРЛА — предводитель шайки -- идеальная стерва, РОУЗИ -- мрачный романтик -- явно не ровно к ней дышит, и БИЛЛИ — несерьезная и смешливая, короче, блондинка. Все друг друга стоят, постоянно собачатся и истекают плотскими страстями... С ходу ревут моторы, визжат тормоза, блестят ножи -- бабы словно с цепи сорвались, и весь мир летит в тартарары!..
Доп. информация: рип стянул из сети (thx to mfcorrea), а со звуком (ДВД9) пришлось повозиться из-за фрагментарной рассинхронизации с блюром, однако справился -- вуаля!

СЭМПЛ
Тип релиза: BDRip 720p
Контейнер: MKV
Видео: x264, 1208x720, 5:3 (1,678), 23.976 fps, 7 040 Kbps
Аудио 1: 48 kHz, AC3 Dolby Digital, 2/0 (L,R) ch, ~224 kbps - многоголосый
Аудио 2: 48 kHz, AC3 Dolby Digital, 2/0 (L,R) ch, ~224 kbps - Алексеев
Аудио 3: 48 kHz, AC3 Dolby Digital, 2/0 (L,R) ch, ~192 kbps - оригинал

MediaInfo

Формат : Matroska
Версия формата : Version 2
Размер файла : 4,48 Гбайт
Продолжительность : 1 ч. 23 м.
Общий поток : 7682 Кбит/сек
Дата кодирования : UTC 2016-08-11 23:51:16
Программа кодирования : mkvmerge v2.9.8 ('C'est le bon') built on Aug 13 2009 12:49:06
Библиотека кодирования : libebml v0.7.7 + libmatroska v0.8.1
Видео
Идентификатор : 1
Формат : AVC
Формат/Информация : Advanced Video Codec
Профиль формата : High@L4.1
Параметр CABAC формата : Да
Параметр ReFrames формата : 9 кадров
Идентификатор кодека : V_MPEG4/ISO/AVC
Продолжительность : 1 ч. 23 м.
Битрейт : 7040 Кбит/сек
Ширина : 1208 пикселей
Высота : 720 пикселей
Соотношение сторон : 1,678
Режим частоты кадров : Постоянный
Частота кадров : 23,976 кадра/сек
Цветовое пространство : YUV
Субдискретизация насыщенности : 4:2:0
Битовая глубина : 8 бит
Тип развёртки : Прогрессивная
Бит/(Пиксели*Кадры) : 0.338
Размер потока : 4,01 Гбайт (90%)
Библиотека кодирования : x264 core 142 r2479 dd79a61
Настройки программы : cabac=1 / ref=9 / deblock=1:-3:-3 / analyse=0x3:0x133 / me=umh / subme=9 / psy=1 / psy_rd=1.00:0.00 / mixed_ref=1 / me_range=34 / chroma_me=1 / trellis=2 / 8x8dct=1 / cqm=0 / deadzone=21,11 / fast_pskip=0 / chroma_qp_offset=-2 / threads=18 / lookahead_threads=3 / sliced_threads=0 / nr=0 / decimate=1 / interlaced=0 / bluray_compat=0 / constrained_intra=0 / bframes=9 / b_pyramid=2 / b_adapt=2 / b_bias=0 / direct=3 / weightb=1 / open_gop=0 / weightp=2 / keyint=240 / keyint_min=24 / scenecut=40 / intra_refresh=0 / rc_lookahead=100 / rc=2pass / mbtree=1 / bitrate=7040 / ratetol=1.0 / qcomp=0.60 / qpmin=0 / qpmax=69 / qpstep=4 / cplxblur=20.0 / qblur=0.5 / vbv_maxrate=62500 / vbv_bufsize=78125 / nal_hrd=none / filler=0 / ip_ratio=1.40 / aq=1:1.00
Default : Нет
Forced : Нет
DURATION : 01:23:24.083000000
NUMBER_OF_FRAMES : 119978
NUMBER_OF_BYTES : 4403529548
_STATISTICS_WRITING_APP : mkvmerge v8.9.0 ('Father Daughter') 64bit
_STATISTICS_WRITING_DATE_UTC : 2016-05-25 11:31:17
_STATISTICS_TAGS : BPS DURATION NUMBER_OF_FRAMES NUMBER_OF_BYTES
Основные цвета : BT.709
Характеристики трансфера : BT.709
Коэффициенты матрицы : BT.709
Аудио #1
Идентификатор : 2
Формат : AC-3
Формат/Информация : Audio Coding 3
Расширение режима : CM (complete main)
Параметр Endianness формата : Big
Идентификатор кодека : A_AC3
Продолжительность : 1 ч. 23 м.
Вид битрейта : Постоянный
Битрейт : 224 Кбит/сек
Каналы : 2 канала
Расположение каналов : Front: L R
Частота : 48,0 КГц
Битовая глубина : 16 бит
Метод сжатия : С потерями
Задержка видео : -83 мс.
Размер потока : 134 Мбайт (3%)
Заголовок : MVO
Язык : Russian
Default : Да
Forced : Нет
DURATION : 01:23:24.064000000
NUMBER_OF_FRAMES : 156377
NUMBER_OF_BYTES : 120097536
_STATISTICS_WRITING_APP : mkvmerge v8.9.0 ('Father Daughter') 64bit
_STATISTICS_WRITING_DATE_UTC : 2016-05-25 11:31:17
_STATISTICS_TAGS : BPS DURATION NUMBER_OF_FRAMES NUMBER_OF_BYTES
Аудио #2
Идентификатор : 3
Формат : AC-3
Формат/Информация : Audio Coding 3
Расширение режима : CM (complete main)
Параметр Endianness формата : Big
Идентификатор кодека : A_AC3
Продолжительность : 1 ч. 23 м.
Вид битрейта : Постоянный
Битрейт : 224 Кбит/сек
Каналы : 2 канала
Расположение каналов : Front: L R
Частота : 48,0 КГц
Битовая глубина : 16 бит
Метод сжатия : С потерями
Задержка видео : -83 мс.
Размер потока : 134 Мбайт (3%)
Заголовок : Алексеев
Язык : Russian
Default : Нет
Forced : Нет
Аудио #3
Идентификатор : 4
Формат : AC-3
Формат/Информация : Audio Coding 3
Расширение режима : CM (complete main)
Параметр Endianness формата : Big
Идентификатор кодека : A_AC3
Продолжительность : 1 ч. 23 м.
Вид битрейта : Постоянный
Битрейт : 192 Кбит/сек
Каналы : 2 канала
Расположение каналов : Front: L R
Частота : 48,0 КГц
Битовая глубина : 16 бит
Метод сжатия : С потерями
Размер потока : 115 Мбайт (2%)
Заголовок : Stereo
Язык : English
Default : Нет
Forced : Нет
Меню
00:00:00.000 : :Chapter 2
00:00:02.002 : :Chapter 3
00:09:59.765 : :Chapter 4
00:20:00.866 : :Chapter 5
00:30:01.841 : :Chapter 6
00:40:01.607 : :Chapter 7
00:50:03.083 : :Chapter 8
01:00:03.349 : :Chapter 9
01:10:03.949 : :Chapter 10
01:20:04.841 : :Chapter 11
01:22:10.342 : :Chapter 12

Скриншоты

[cybertorrent.ru].t2779.torrent 
Торрент: Зарегистрирован [ 2018-02-16 14:35 ] · 1D87D462BB5BD143E3C9AB039798F3EDF262E4FE

Скачать .torrent

Скачать

12 KB

Статус: проверено
Скачан: 0 раз
Размер: 4,48 GB
Профиль [ЛС]
Показать сообщения:    

Текущее время: 27-Май 19:44

Часовой пояс: UTC ± 0



Вы не можете начинать темы
Вы не можете отвечать на сообщения
Вы не можете редактировать свои сообщения
Вы не можете удалять свои сообщения
Вы не можете голосовать в опросах
Вы не можете прикреплять файлы к сообщениям
Вы можете скачивать файлы