Статистика раздачи
Размер:  986 MB   |    Зарегистрирован:  3 месяца 8 дней   |    Скачан:  0 раз

Полного источника не было: Никогда

Личеров:  2  [  0 KB/s  ]  
 
   
 
 

FibYar ®

Пол:
Не указан
Стаж:
3 месяца 9 дней
Сообщений:
227

Фестивальная Британия / Festivals Britannia
Дата/Год выпуска: 2010
Страна: UK
Жанр: Documentary
Продолжительность: 01:27:39
Перевод: Субтитры
Русские субтитры: сделаны автором раздачи
Источник: видео скачано из сети
Формат субтитров: softsub (SRT)
Оригинальная аудиодорожка: английский
Режиссер: Сэм Бриджер / Sam Bridger
Телеканал: BBC
Описание: Документальный фильм компании BBC об истории британских музыкальных фестивалей.
Доп. информация: http://www.bbc.co.uk/programmes/b00wmdqs
Сэмпл: http://sendfile.su/1297887
качество: HDTVRip
формат: MKV
Видео: V_MPEG4/ISO/AVC; 1024x576; 16:9; 1439 Kbps; 25.000 fps;
Аудио: A_AAC, 48,0 КГц, 2 канала, 132 Кбит/сек

MediaInfo

Общее
Уникальный идентификатор : 171014033318706662318910821891771565282 (0x80A81AD21193A94489C78CF362A984E2)
Полное имя : D:\TORRENT\Festivals.Britannia.BBC.2010.mkv
Формат : Matroska
Версия формата : Version 4 / Version 2
Размер файла : 986 Мбайт
Продолжительность : 1 ч. 27 м.
Общий поток : 1573 Кбит/сек
Дата кодирования : UTC 2017-01-09 17:17:19
Программа кодирования : mkvmerge v9.5.0 ('Quiet Fire') 64bit
Библиотека кодирования : libebml v1.3.4 + libmatroska v1.4.5
Видео
Идентификатор : 1
Формат : AVC
Формат/Информация : Advanced Video Codec
Профиль формата : High@L3.1
Параметр CABAC формата : Да
Параметр ReFrames формата : 4 кадра
Идентификатор кодека : V_MPEG4/ISO/AVC
Продолжительность : 1 ч. 27 м.
Битрейт : 1439 Кбит/сек
Ширина : 1024 пикселя
Высота : 576 пикселей
Соотношение сторон : 16:9
Режим частоты кадров : Постоянный
Частота кадров : 25,000 кадров/сек
Цветовое пространство : YUV
Субдискретизация насыщенности : 4:2:0
Битовая глубина : 8 бит
Тип развёртки : Прогрессивная
Бит/(Пиксели*Кадры) : 0.098
Размер потока : 902 Мбайт (91%)
Библиотека кодирования : x264 core 146 r2538 121396c
Настройки программы : cabac=1 / ref=4 / deblock=1:0:0 / analyse=0x3:0x113 / me=umh / subme=7 / psy=1 / psy_rd=1.00:0.00 / mixed_ref=1 / me_range=16 / chroma_me=1 / trellis=1 / 8x8dct=1 / cqm=0 / deadzone=21,11 / fast_pskip=0 / chroma_qp_offset=-2 / threads=3 / lookahead_threads=1 / sliced_threads=0 / nr=0 / decimate=1 / interlaced=0 / bluray_compat=0 / constrained_intra=0 / bframes=16 / b_pyramid=2 / b_adapt=1 / b_bias=0 / direct=1 / weightb=1 / open_gop=0 / weightp=2 / keyint=250 / keyint_min=25 / scenecut=40 / intra_refresh=0 / rc_lookahead=40 / rc=crf / mbtree=1 / crf=25.0 / qcomp=0.60 / qpmin=0 / qpmax=69 / qpstep=4 / ip_ratio=1.40 / aq=1:1.00
Язык : English
Default : Да
Forced : Нет
Аудио
Идентификатор : 2
Формат : AAC
Формат/Информация : Advanced Audio Codec
Профиль формата : LC
Идентификатор кодека : A_AAC
Продолжительность : 1 ч. 27 м.
Битрейт : 132 Кбит/сек
Каналы : 2 канала
Расположение каналов : Front: L R
Частота : 48,0 КГц
Частота кадров : 46,875 кадров/сек (1024 spf)
Метод сжатия : С потерями
Задержка видео : 9 мс.
Размер потока : 82,4 Мбайт (8%)
Язык : English
Default : Да
Forced : Нет
Текст #1
Идентификатор : 3
Формат : UTF-8
Идентификатор кодека : S_TEXT/UTF8
Идентификатор кодека/Информация : UTF-8 Plain Text
Продолжительность : 1 ч. 27 м.
Битрейт : 151 бит/сек
Count of elements : 1346
Размер потока : 97,2 Кбайт (0%)
Язык : Russian
Default : Да
Forced : Нет
Текст #2
Идентификатор : 4
Формат : UTF-8
Идентификатор кодека : S_TEXT/UTF8
Идентификатор кодека/Информация : UTF-8 Plain Text
Продолжительность : 1 ч. 27 м.
Битрейт : 96 бит/сек
Count of elements : 1194
Размер потока : 62,0 Кбайт (0%)
Язык : English
Default : Нет
Forced : Нет
[cybertorrent.ru].t3000.torrent 
Торрент: Зарегистрирован [ 2018-02-16 14:35 ] · C86FC87F6C1C4530B6EA06447C5623DB2FD731E0

Скачать .torrent

Скачать

20 KB

Статус: проверено
Скачан: 0 раз
Размер: 986 MB
Профиль [ЛС]
Показать сообщения:    

Текущее время: 24-Май 19:24

Часовой пояс: UTC ± 0



Вы не можете начинать темы
Вы не можете отвечать на сообщения
Вы не можете редактировать свои сообщения
Вы не можете удалять свои сообщения
Вы не можете голосовать в опросах
Вы не можете прикреплять файлы к сообщениям
Вы можете скачивать файлы