Статистика раздачи
Размер:  5,98 GB   |    Зарегистрирован:  3 месяца 8 дней   |    Скачан:  0 раз

Полного источника не было: Никогда

 
   
 
 

deltacatsplus ®

Пол:
Не указан
Стаж:
3 месяца 9 дней
Сообщений:
736

Плачь! Молись! Кричи! / Помогите / Help
Страна: Индия
Студия: M/s Rupali Aum Entertainment
Жанр: Ужасы, триллер, драма
Год выпуска: 2010
Продолжительность: 02:00:53
Перевод: Профессиональный (многоголосый закадровый) Red Media
Субтитры: русские, английские
Оригинальная аудиодорожка: хинди
Режиссер: Раджив Вирани / Rajeev Virani
В ролях: Бобби Деол, Мугдха Годсе, Шреяс Талпаде, Софи Ханда, Линда Арсенио, Маной Чатурведи, Датта Дэйв, Джоти Догра, Салим Фатехи, Симран Капур
Описание: Вик, успешный режиссер фильмов ужасов в Болливуде, женат на Пие. Они переживают семейный кризис. Внезапно, у Пии заболевает отец, и они едут на Маврикий, чтобы его навестить. Вернувшись в старый фамильный дом, Пия вновь сталкивается со своим далеким прошлым, с которым, казалось, давно было покончено...
Доп. информация: Дистрибьютор: Русское счастье Энтертеймент
Меню: анимированное / озвученное
Сэмпл: http://multi-up.com/1135629
Тип релиза: DVD9
Контейнер: DVD-Video
Видео: MPEG2 Video 720x576 (16:9) 25 fps VBR ~ 5800 kbps avg
Аудио: Dolby AC3 48000Hz 6ch 448Kbps [AC-3] русский
Аудио 2: Dolby AC3 48000Hz 6ch 448bps [AC-3] хинди
Формат субтитров: prerendered (DVD/IDX+SUB)

DVDInfo

Title:
Size: 5.98 Gb ( 6 274 400 KBytes ) - DVD-9
Enabled regions: 1, 2, 3, 4, 5, 6, 7, 8
VTS_01 :
Play Length: 02:00:53+00:05:10+00:03:26+00:02:21
Video: PAL 16:9 (720x576) VBR, Auto Pan&Scan
Audio:
English (Dolby AC3, 6 ch)
English (Dolby AC3, 6 ch)
Subtitles:
Russian
English
English
VTS_02 :
Play Length: 00:00:09
Video: PAL 16:9 (720x576) VBR, Auto Pan&Scan
Audio:
English (Dolby AC3, 2 ch)
VTS_03 :
Play Length: 00:00:15
Video: PAL 16:9 (720x576) VBR, Auto Pan&Scan
Audio:
English (Dolby AC3, 2 ch)
VTS_04 :
Play Length: 00:00:16
Video: PAL 4:3 (720x576) VBR
Audio:
English (Dolby AC3, 2 ch)
Menu Video:
PAL 4:3 (720x576) VBR
Menu English Language Unit :
Root Menu

MediaInfo

General
Complete name : D:\Plach.Molis.Krichi.2010.DVD-9\VIDEO_TS\VIDEO_TS.BUP
Format : DVD Video
Format profile : Menu
File size : 14.0 KiB
Video
ID : 0xE0
Format : MPEG Video
Format version : Version 2
Bit rate mode : Variable
Width : 720 pixels
Height : 576 pixels
Display aspect ratio : 4/3
Frame rate : 25.000 fps
Standard : PAL
General
Complete name : D:\Plach.Molis.Krichi.2010.DVD-9\VIDEO_TS\VIDEO_TS.IFO
Format : DVD Video
Format profile : Menu
File size : 14.0 KiB
Video
ID : 0xE0
Format : MPEG Video
Format version : Version 2
Bit rate mode : Variable
Width : 720 pixels
Height : 576 pixels
Display aspect ratio : 4/3
Frame rate : 25.000 fps
Standard : PAL
General
Complete name : D:\Plach.Molis.Krichi.2010.DVD-9\VIDEO_TS\VIDEO_TS.VOB
Format : MPEG-PS
File size : 48.0 KiB
Video
ID : 224 (0xE0)
Format : MPEG Video
Format version : Version 2
Format profile : Main@Main
Format settings, Matrix : Default
Bit rate mode : Variable
Bit rate : 9 000 Kbps
Width : 720 pixels
Height : 576 pixels
Display aspect ratio : 4/3
Frame rate : 25.000 fps
Standard : PAL
Colorimetry : 4:2:0
Scan type : Progressive
Scan order : Top Field First
Bits/(Pixel*Frame) : 0.868
Menu
Format : DVD-Video
General
Complete name : D:\Plach.Molis.Krichi.2010.DVD-9\VIDEO_TS\VTS_01_0.BUP
Format : DVD Video
Format profile : Program
File size : 88.0 KiB
Video
ID : 0xE0
Format : MPEG Video
Format version : Version 2
Bit rate mode : Variable
Width : 720 pixels
Height : 576 pixels
Display aspect ratio : 16/9
Frame rate : 25.000 fps
Standard : PAL
Audio #1
ID : 0x80
Format : AC-3
Format/Info : Audio Coding 3
Channel(s) : 6 channels
Sampling rate : 48.0 KHz
Language : English
Audio #2
ID : 0x81
Format : AC-3
Format/Info : Audio Coding 3
Channel(s) : 6 channels
Sampling rate : 48.0 KHz
Language : English
Text #1
ID : 0x20
Format : RLE
Format/Info : Run-length encoding
Resolution : 2 bits
Language : Russian
Text #2
ID : 0x21
Format : RLE
Format/Info : Run-length encoding
Resolution : 2 bits
Language : English
Text #3
ID : 0x22
Format : RLE
Format/Info : Run-length encoding
Resolution : 2 bits
Language : English
Menu #1
List (Audio) : 0 / 1
List (Subtitles 4/3) : 0 / 1 / 2
List (Subtitles Wide) : 0 / 1 / 2
List (Subtitles Letterbox) : 0 / 1 / 2
List (Subtitles Pan&Scan) : 0 / 1 / 2
Menu #2
List (Audio) : 0 / 1
Menu #3
General
Complete name : D:\Plach.Molis.Krichi.2010.DVD-9\VIDEO_TS\VTS_01_0.IFO
Format : DVD Video
Format profile : Program
File size : 88.0 KiB
Video
ID : 0xE0
Format : MPEG Video
Format version : Version 2
Bit rate mode : Variable
Width : 720 pixels
Height : 576 pixels
Display aspect ratio : 16/9
Frame rate : 25.000 fps
Standard : PAL
Audio #1
ID : 0x80
Format : AC-3
Format/Info : Audio Coding 3
Channel(s) : 6 channels
Sampling rate : 48.0 KHz
Language : English
Audio #2
ID : 0x81
Format : AC-3
Format/Info : Audio Coding 3
Channel(s) : 6 channels
Sampling rate : 48.0 KHz
Language : English
Text #1
ID : 0x20
Format : RLE
Format/Info : Run-length encoding
Resolution : 2 bits
Language : Russian
Text #2
ID : 0x21
Format : RLE
Format/Info : Run-length encoding
Resolution : 2 bits
Language : English
Text #3
ID : 0x22
Format : RLE
Format/Info : Run-length encoding
Resolution : 2 bits
Language : English
Menu #1
List (Audio) : 0 / 1
List (Subtitles 4/3) : 0 / 1 / 2
List (Subtitles Wide) : 0 / 1 / 2
List (Subtitles Letterbox) : 0 / 1 / 2
List (Subtitles Pan&Scan) : 0 / 1 / 2
Menu #2
List (Audio) : 0 / 1
Menu #3
General
Complete name : D:\Plach.Molis.Krichi.2010.DVD-9\VIDEO_TS\VTS_01_0.VOB
Format : MPEG-PS
File size : 68.1 MiB
Video
ID : 224 (0xE0)
Format : MPEG Video
Format version : Version 2
Format profile : Main@Main
Format settings, Matrix : Default
Bit rate mode : Variable
Bit rate : 4 800 Kbps
Width : 720 pixels
Height : 576 pixels
Display aspect ratio : 16/9
Frame rate : 25.000 fps
Standard : PAL
Colorimetry : 4:2:0
Scan type : Interlaced
Scan order : Bottom Field First
Bits/(Pixel*Frame) : 0.463
Audio
ID : 128 (0x80)
Format : AC-3
Format/Info : Audio Coding 3
Bit rate mode : Constant
Bit rate : 192 Kbps
Channel(s) : 2 channels
Channel positions : L R
Sampling rate : 48.0 KHz
Text #1
ID : 32 (0x20)
Format : RLE
Format/Info : Run-length encoding
Text #2
ID : 33 (0x21)
Format : RLE
Format/Info : Run-length encoding
Text #3
ID : 34 (0x22)
Format : RLE
Format/Info : Run-length encoding
Menu
Format : DVD-Video
General
Complete name : D:\Plach.Molis.Krichi.2010.DVD-9\VIDEO_TS\VTS_01_1.VOB
Format : MPEG-PS
File size : 1 000 MiB
Duration : 19mn 54s
Overall bit rate : 7 027 Kbps
Writing library : encoded by TMPGEnc 4.0 XPress Version. 4.6.2.266
Video
ID : 224 (0xE0)
Format : MPEG Video
Format version : Version 2
Format profile : Main@Main
Format settings, Matrix : Default
Duration : 19mn 54s
Bit rate mode : Constant
Bit rate : 5 852 Kbps
Nominal bit rate : 6 000 Kbps
Width : 720 pixels
Height : 576 pixels
Display aspect ratio : 16/9
Frame rate : 25.000 fps
Standard : PAL
Colorimetry : 4:2:0
Scan type : Interlaced
Scan order : Top Field First
Bits/(Pixel*Frame) : 0.564
Stream size : 833 MiB (83%)
Writing library : TMPGEnc XPress 4.6.2.266
Audio #1
ID : 128 (0x80)
Format : AC-3
Format/Info : Audio Coding 3
Duration : 19mn 53s
Bit rate mode : Constant
Bit rate : 448 Kbps
Channel(s) : 6 channels
Channel positions : Front: L C R, Surround: L R, LFE
Sampling rate : 48.0 KHz
Stream size : 63.8 MiB (6%)
Audio #2
ID : 129 (0x81)
Format : AC-3
Format/Info : Audio Coding 3
Duration : 19mn 53s
Bit rate mode : Constant
Bit rate : 448 Kbps
Channel(s) : 6 channels
Channel positions : Front: L C R, Surround: L R, LFE
Sampling rate : 48.0 KHz
Stream size : 63.8 MiB (6%)
Menu
Format : DVD-Video
General
Complete name : D:\Plach.Molis.Krichi.2010.DVD-9\VIDEO_TS\VTS_01_2.VOB
Format : MPEG-PS
File size : 1 000 MiB
Duration : 19mn 53s
Overall bit rate : 7 030 Kbps
Video
ID : 224 (0xE0)
Format : MPEG Video
Format version : Version 2
Format profile : Main@Main
Format settings, Matrix : Default
Duration : 19mn 53s
Bit rate mode : Constant
Bit rate : 5 855 Kbps
Nominal bit rate : 6 000 Kbps
Width : 720 pixels
Height : 576 pixels
Display aspect ratio : 16/9
Frame rate : 25.000 fps
Standard : PAL
Colorimetry : 4:2:0
Scan type : Interlaced
Scan order : Top Field First
Bits/(Pixel*Frame) : 0.565
Stream size : 833 MiB (83%)
Audio #1
ID : 128 (0x80)
Format : AC-3
Format/Info : Audio Coding 3
Duration : 19mn 53s
Bit rate mode : Constant
Bit rate : 448 Kbps
Channel(s) : 6 channels
Channel positions : Front: L C R, Surround: L R, LFE
Sampling rate : 48.0 KHz
Video delay : -216ms
Stream size : 63.7 MiB (6%)
Audio #2
ID : 129 (0x81)
Format : AC-3
Format/Info : Audio Coding 3
Duration : 19mn 53s
Bit rate mode : Constant
Bit rate : 448 Kbps
Channel(s) : 6 channels
Channel positions : Front: L C R, Surround: L R, LFE
Sampling rate : 48.0 KHz
Video delay : -216ms
Stream size : 63.7 MiB (6%)
Menu
Format : DVD-Video
General
Complete name : D:\Plach.Molis.Krichi.2010.DVD-9\VIDEO_TS\VTS_01_3.VOB
Format : MPEG-PS
File size : 1 000 MiB
Duration : 19mn 53s
Overall bit rate : 7 030 Kbps
Video
ID : 224 (0xE0)
Format : MPEG Video
Format version : Version 2
Format profile : Main@Main
Format settings, Matrix : Default
Duration : 19mn 53s
Bit rate mode : Constant
Bit rate : 5 855 Kbps
Nominal bit rate : 6 000 Kbps
Width : 720 pixels
Height : 576 pixels
Display aspect ratio : 16/9
Frame rate : 25.000 fps
Standard : PAL
Colorimetry : 4:2:0
Scan type : Interlaced
Scan order : Top Field First
Bits/(Pixel*Frame) : 0.565
Stream size : 833 MiB (83%)
Audio #1
ID : 128 (0x80)
Format : AC-3
Format/Info : Audio Coding 3
Duration : 19mn 53s
Bit rate mode : Constant
Bit rate : 448 Kbps
Channel(s) : 6 channels
Channel positions : Front: L C R, Surround: L R, LFE
Sampling rate : 48.0 KHz
Video delay : -248ms
Stream size : 63.7 MiB (6%)
Audio #2
ID : 129 (0x81)
Format : AC-3
Format/Info : Audio Coding 3
Duration : 19mn 53s
Bit rate mode : Constant
Bit rate : 448 Kbps
Channel(s) : 6 channels
Channel positions : Front: L C R, Surround: L R, LFE
Sampling rate : 48.0 KHz
Video delay : -248ms
Stream size : 63.7 MiB (6%)
Text
ID : 32 (0x20)
Format : RLE
Format/Info : Run-length encoding
Menu
Format : DVD-Video
General
Complete name : D:\Plach.Molis.Krichi.2010.DVD-9\VIDEO_TS\VTS_01_4.VOB
Format : MPEG-PS
File size : 1 000 MiB
Duration : 19mn 52s
Overall bit rate : 7 031 Kbps
Video
ID : 224 (0xE0)
Format : MPEG Video
Format version : Version 2
Format profile : Main@Main
Format settings, Matrix : Default
Duration : 19mn 52s
Bit rate mode : Constant
Bit rate : 5 856 Kbps
Nominal bit rate : 6 000 Kbps
Width : 720 pixels
Height : 576 pixels
Display aspect ratio : 16/9
Frame rate : 25.000 fps
Standard : PAL
Colorimetry : 4:2:0
Scan type : Interlaced
Scan order : Top Field First
Bits/(Pixel*Frame) : 0.565
Stream size : 833 MiB (83%)
Audio #1
ID : 128 (0x80)
Format : AC-3
Format/Info : Audio Coding 3
Duration : 19mn 52s
Bit rate mode : Constant
Bit rate : 448 Kbps
Channel(s) : 6 channels
Channel positions : Front: L C R, Surround: L R, LFE
Sampling rate : 48.0 KHz
Video delay : -224ms
Stream size : 63.7 MiB (6%)
Audio #2
ID : 129 (0x81)
Format : AC-3
Format/Info : Audio Coding 3
Duration : 19mn 52s
Bit rate mode : Constant
Bit rate : 448 Kbps
Channel(s) : 6 channels
Channel positions : Front: L C R, Surround: L R, LFE
Sampling rate : 48.0 KHz
Video delay : -224ms
Stream size : 63.7 MiB (6%)
Text
ID : 32 (0x20)
Format : RLE
Format/Info : Run-length encoding
Menu
Format : DVD-Video
General
Complete name : D:\Plach.Molis.Krichi.2010.DVD-9\VIDEO_TS\VTS_01_5.VOB
Format : MPEG-PS
File size : 1 000 MiB
Duration : 19mn 52s
Overall bit rate : 7 033 Kbps
Video
ID : 224 (0xE0)
Format : MPEG Video
Format version : Version 2
Format profile : Main@Main
Format settings, Matrix : Default
Duration : 19mn 52s
Bit rate mode : Constant
Bit rate : 5 857 Kbps
Nominal bit rate : 6 000 Kbps
Width : 720 pixels
Height : 576 pixels
Display aspect ratio : 16/9
Frame rate : 25.000 fps
Standard : PAL
Colorimetry : 4:2:0
Scan type : Interlaced
Scan order : Top Field First
Bits/(Pixel*Frame) : 0.565
Stream size : 833 MiB (83%)
Audio #1
ID : 128 (0x80)
Format : AC-3
Format/Info : Audio Coding 3
Duration : 19mn 52s
Bit rate mode : Constant
Bit rate : 448 Kbps
Channel(s) : 6 channels
Channel positions : Front: L C R, Surround: L R, LFE
Sampling rate : 48.0 KHz
Video delay : -240ms
Stream size : 63.7 MiB (6%)
Audio #2
ID : 129 (0x81)
Format : AC-3
Format/Info : Audio Coding 3
Duration : 19mn 52s
Bit rate mode : Constant
Bit rate : 448 Kbps
Channel(s) : 6 channels
Channel positions : Front: L C R, Surround: L R, LFE
Sampling rate : 48.0 KHz
Video delay : -240ms
Stream size : 63.7 MiB (6%)
Text
ID : 32 (0x20)
Format : RLE
Format/Info : Run-length encoding
Video delay : -240ms
Menu
Format : DVD-Video
General
Complete name : D:\Plach.Molis.Krichi.2010.DVD-9\VIDEO_TS\VTS_01_6.VOB
Format : MPEG-PS
File size : 1 000 MiB
Duration : 9mn 37s
Overall bit rate : 14.5 Mbps
Video
ID : 224 (0xE0)
Format : MPEG Video
Format version : Version 2
Format profile : Main@Main
Format settings, Matrix : Default
Duration : 9mn 37s
Bit rate mode : Constant
Bit rate : 13.1 Mbps
Nominal bit rate : 6 000 Kbps
Width : 720 pixels
Height : 576 pixels
Display aspect ratio : 16/9
Frame rate : 25.000 fps
Standard : PAL
Colorimetry : 4:2:0
Scan type : Interlaced
Scan order : Top Field First
Bits/(Pixel*Frame) : 1.260
Stream size : 899 MiB (90%)
Audio #1
ID : 128 (0x80)
Format : AC-3
Format/Info : Audio Coding 3
Duration : 9mn 37s
Bit rate mode : Constant
Bit rate : 448 Kbps
Channel(s) : 6 channels
Channel positions : Front: L C R, Surround: L R, LFE
Sampling rate : 48.0 KHz
Video delay : -248ms
Stream size : 30.8 MiB (3%)
Audio #2
ID : 129 (0x81)
Format : AC-3
Format/Info : Audio Coding 3
Duration : 9mn 37s
Bit rate mode : Constant
Bit rate : 448 Kbps
Channel(s) : 6 channels
Channel positions : Front: L C R, Surround: L R, LFE
Sampling rate : 48.0 KHz
Video delay : -248ms
Stream size : 30.8 MiB (3%)
Menu
Format : DVD-Video
General
Complete name : D:\Plach.Molis.Krichi.2010.DVD-9\VIDEO_TS\VTS_01_7.VOB
Format : MPEG-PS
File size : 37.5 MiB
Duration : 48s 400ms
Overall bit rate : 6 502 Kbps
Video
ID : 224 (0xE0)
Format : MPEG Video
Format version : Version 2
Format profile : Main@Main
Format settings, Matrix : Default
Duration : 48s 400ms
Bit rate mode : Constant
Bit rate : 5 860 Kbps
Nominal bit rate : 6 000 Kbps
Width : 720 pixels
Height : 576 pixels
Display aspect ratio : 16/9
Frame rate : 25.000 fps
Standard : PAL
Colorimetry : 4:2:0
Scan type : Interlaced
Scan order : Top Field First
Bits/(Pixel*Frame) : 0.565
Stream size : 33.8 MiB (90%)
Audio #1
ID : 128 (0x80)
Format : AC-3
Format/Info : Audio Coding 3
Duration : 48s 384ms
Bit rate mode : Constant
Bit rate : 192 Kbps
Channel(s) : 2 channels
Channel positions : L R
Sampling rate : 48.0 KHz
Video delay : -208ms
Stream size : 1.11 MiB (3%)
Audio #2
ID : 129 (0x81)
Format : AC-3
Format/Info : Audio Coding 3
Duration : 48s 384ms
Bit rate mode : Constant
Bit rate : 192 Kbps
Channel(s) : 2 channels
Channel positions : L R
Sampling rate : 48.0 KHz
Video delay : -208ms
Stream size : 1.11 MiB (3%)
Menu
Format : DVD-Video
General
Complete name : D:\Plach.Molis.Krichi.2010.DVD-9\VIDEO_TS\VTS_02_0.BUP
Format : DVD Video
Format profile : Program
File size : 14.0 KiB
Video
ID : 0xE0
Format : MPEG Video
Format version : Version 2
Bit rate mode : Variable
Width : 720 pixels
Height : 576 pixels
Display aspect ratio : 16/9
Frame rate : 25.000 fps
Standard : PAL
Audio
ID : 0x80
Format : AC-3
Format/Info : Audio Coding 3
Channel(s) : 2 channels
Sampling rate : 48.0 KHz
Language : English
Menu
List (Audio) : 0
General
Complete name : D:\Plach.Molis.Krichi.2010.DVD-9\VIDEO_TS\VTS_02_0.IFO
Format : DVD Video
Format profile : Program
File size : 14.0 KiB
Video
ID : 0xE0
Format : MPEG Video
Format version : Version 2
Bit rate mode : Variable
Width : 720 pixels
Height : 576 pixels
Display aspect ratio : 16/9
Frame rate : 25.000 fps
Standard : PAL
Audio
ID : 0x80
Format : AC-3
Format/Info : Audio Coding 3
Channel(s) : 2 channels
Sampling rate : 48.0 KHz
Language : English
Menu
List (Audio) : 0
General
Complete name : D:\Plach.Molis.Krichi.2010.DVD-9\VIDEO_TS\VTS_02_1.VOB
Format : MPEG-PS
File size : 1.84 MiB
Duration : 9s 0ms
Overall bit rate : 1 718 Kbps
Video
ID : 224 (0xE0)
Format : MPEG Video
Format version : Version 2
Format profile : Main@Main
Format settings, Matrix : Default
Duration : 9s 0ms
Bit rate mode : Variable
Bit rate : 1 458 Kbps
Nominal bit rate : 9 200 Kbps
Width : 720 pixels
Height : 576 pixels
Display aspect ratio : 16/9
Frame rate : 25.000 fps
Standard : PAL
Colorimetry : 4:2:0
Scan type : Progressive
Bits/(Pixel*Frame) : 0.141
Stream size : 1.56 MiB (85%)
Audio
ID : 128 (0x80)
Format : AC-3
Format/Info : Audio Coding 3
Duration : 8s 736ms
Bit rate mode : Constant
Bit rate : 192 Kbps
Channel(s) : 2 channels
Channel positions : L R
Sampling rate : 48.0 KHz
Stream size : 205 KiB (11%)
Menu
Format : DVD-Video
General
Complete name : D:\Plach.Molis.Krichi.2010.DVD-9\VIDEO_TS\VTS_03_0.BUP
Format : DVD Video
Format profile : Program
File size : 14.0 KiB
Video
ID : 0xE0
Format : MPEG Video
Format version : Version 2
Bit rate mode : Variable
Width : 720 pixels
Height : 576 pixels
Display aspect ratio : 16/9
Frame rate : 25.000 fps
Standard : PAL
Audio
ID : 0x80
Format : AC-3
Format/Info : Audio Coding 3
Channel(s) : 2 channels
Sampling rate : 48.0 KHz
Language : English
Menu
List (Audio) : 0
General
Complete name : D:\Plach.Molis.Krichi.2010.DVD-9\VIDEO_TS\VTS_03_0.IFO
Format : DVD Video
Format profile : Program
File size : 14.0 KiB
Video
ID : 0xE0
Format : MPEG Video
Format version : Version 2
Bit rate mode : Variable
Width : 720 pixels
Height : 576 pixels
Display aspect ratio : 16/9
Frame rate : 25.000 fps
Standard : PAL
Audio
ID : 0x80
Format : AC-3
Format/Info : Audio Coding 3
Channel(s) : 2 channels
Sampling rate : 48.0 KHz
Language : English
Menu
List (Audio) : 0
General
Complete name : D:\Plach.Molis.Krichi.2010.DVD-9\VIDEO_TS\VTS_03_1.VOB
Format : MPEG-PS
File size : 11.7 MiB
Duration : 15s 920ms
Overall bit rate : 6 189 Kbps
Video
ID : 224 (0xE0)
Format : MPEG Video
Format version : Version 2
Format profile : Main@Main
Format settings, Matrix : Default
Duration : 15s 920ms
Bit rate mode : Variable
Bit rate : 5 752 Kbps
Nominal bit rate : 9 200 Kbps
Width : 720 pixels
Height : 576 pixels
Display aspect ratio : 16/9
Frame rate : 25.000 fps
Standard : PAL
Colorimetry : 4:2:0
Scan type : Progressive
Bits/(Pixel*Frame) : 0.555
Stream size : 10.9 MiB (93%)
Audio
ID : 128 (0x80)
Format : AC-3
Format/Info : Audio Coding 3
Duration : 15s 648ms
Bit rate mode : Constant
Bit rate : 192 Kbps
Channel(s) : 2 channels
Channel positions : L R
Sampling rate : 48.0 KHz
Stream size : 367 KiB (3%)
Menu
Format : DVD-Video
General
Complete name : D:\Plach.Molis.Krichi.2010.DVD-9\VIDEO_TS\VTS_04_0.BUP
Format : DVD Video
Format profile : Program
File size : 14.0 KiB
Video
ID : 0xE0
Format : MPEG Video
Format version : Version 2
Bit rate mode : Variable
Width : 720 pixels
Height : 576 pixels
Display aspect ratio : 4/3
Frame rate : 25.000 fps
Standard : PAL
Audio
ID : 0x80
Format : AC-3
Format/Info : Audio Coding 3
Channel(s) : 2 channels
Sampling rate : 48.0 KHz
Language : English
Menu
List (Audio) : 0
General
Complete name : D:\Plach.Molis.Krichi.2010.DVD-9\VIDEO_TS\VTS_04_0.IFO
Format : DVD Video
Format profile : Program
File size : 14.0 KiB
Video
ID : 0xE0
Format : MPEG Video
Format version : Version 2
Bit rate mode : Variable
Width : 720 pixels
Height : 576 pixels
Display aspect ratio : 4/3
Frame rate : 25.000 fps
Standard : PAL
Audio
ID : 0x80
Format : AC-3
Format/Info : Audio Coding 3
Channel(s) : 2 channels
Sampling rate : 48.0 KHz
Language : English
Menu
List (Audio) : 0
General
Complete name : D:\Plach.Molis.Krichi.2010.DVD-9\VIDEO_TS\VTS_04_1.VOB
Format : MPEG-PS
File size : 7.64 MiB
Duration : 16s 440ms
Overall bit rate : 3 900 Kbps
Video
ID : 224 (0xE0)
Format : MPEG Video
Format version : Version 2
Format profile : Main@Main
Format settings, Matrix : Default
Duration : 16s 440ms
Bit rate mode : Variable
Bit rate : 3 297 Kbps
Nominal bit rate : 9 200 Kbps
Width : 720 pixels
Height : 576 pixels
Display aspect ratio : 4/3
Frame rate : 25.000 fps
Standard : PAL
Colorimetry : 4:2:0
Scan type : Progressive
Bits/(Pixel*Frame) : 0.318
Stream size : 6.46 MiB (85%)
Audio
ID : 128 (0x80)
Format : AC-3
Format/Info : Audio Coding 3
Duration : 16s 192ms
Bit rate mode : Constant
Bit rate : 448 Kbps
Channel(s) : 2 channels
Channel positions : L R
Sampling rate : 48.0 KHz
Stream size : 886 KiB (11%)
Menu
Format : DVD-Video

Скриншоты меню

Скриншоты

[cybertorrent.ru].t3006.torrent 
Торрент: Зарегистрирован [ 2018-02-16 17:30 ] · 9FD66A76D2CC02F9127F491038D66BFBFF8EACAD

Скачать .torrent

Скачать

31 KB

Статус: проверено
Скачан: 0 раз
Размер: 5,98 GB
Профиль [ЛС]
Показать сообщения:    

Текущее время: 24-Май 19:25

Часовой пояс: UTC ± 0



Вы не можете начинать темы
Вы не можете отвечать на сообщения
Вы не можете редактировать свои сообщения
Вы не можете удалять свои сообщения
Вы не можете голосовать в опросах
Вы не можете прикреплять файлы к сообщениям
Вы можете скачивать файлы