Статистика раздачи
Размер:  1,37 GB   |    Зарегистрирован:  3 месяца 6 дней   |    Скачан:  0 раз
Сидов:  6  [  0 KB/s  ]  
 
   
 
 

lopster ®

Пол:
Не указан
Стаж:
3 месяца 6 дней
Сообщений:
612

След тигра
Жанр: драма, криминал
Год выпуска: 2014
Продолжительность: 01:30:54
Режиссёр: Алексей Козлов
В ролях: Александр Балуев, Алексей Кравченко, Денис Никифоров, Александр Устюгов, Мария Порошина, Мария Пирогова, Роман Мадянов, Олег Васильков, Борис Щербаков, Вадим Андреев, Александр Дробитько, Виталий Кононов, Дмитрий Сутырин, Павел Гончаров, Дмитрий Быковский-Ромашов
Описание: В небольшом поселке, расположенном в тайге Приморского края, живет потомственный егерь Павел Широков. Однажды на его участке произошло дерзкое преступление: браконьеры отстрелили двух уссурийских тигров. В тот же день сотрудники ДПС остановили на трассе внедорожник. На просьбу открыть багажник пассажиры отреагировали агрессивно, началась перестрелка, и все ее участники погибли.
Прибывший на место преступления полковник Хазов обнаружил в багажнике машины убитых тигров и узнал в одном из погибших браконьеров местного охотника-проводника. Хазов уверен: в ближайшие дни преступники будут искать нового человека, который сможет вывести их на след тигра...
Релиз группа
Все раздачи фильма: След тигра

Качество видео: HDTVRip
Формат видео: AVI
Видео: XviD, 720х400 (1,8:1), 25 кадр/с, ~1953 Кбит/сек, 0,271 bit/pixel
Аудио: АС3, 48 kHz, 2 (L, R) ch, 192 Кбит/с

MediaInfo

Код:Общее
Полное имя : C:\otkat\Видео\Sled.tigra.2014.HDTVRip.Files-x.avi
Формат : AVI
Формат/Информация : Audio Video Interleave
Размер файла : 1,37 Гбайт
Продолжительность : 1 ч. 30 м.
Общий поток : 2155 Кбит/сек
Программа кодирования : VirtualDubMod 1.5.10.3 | www.virtualdub-fr.org || (build 2550/release)
Библиотека кодирования : VirtualDubMod build 2550/release
Видео
Идентификатор : 0
Формат : MPEG-4 Visual
Профиль формата : Advanced Simple@L5
Параметр BVOP формата : 1
Параметр QPel формата : Нет
Параметр GMC формата : Без точки перехода
Параметр матрицы формата : Выборочная
Идентификатор кодека : XVID
Идентификатор кодека/Подсказка : XviD
Продолжительность : 1 ч. 30 м.
Битрейт : 1953 Кбит/сек
Ширина : 720 пикселей
Высота : 400 пикселей
Соотношение сторон : 16:9
Частота кадров : 25,000 кадров/сек
Цветовое пространство : YUV
Субдискретизация насыщенности : 4:2:0
Битовая глубина : 8 бит
Тип развёртки : Прогрессивная
Метод сжатия : С потерями
Бит/(Пиксели*Кадры) : 0.271
Размер потока : 1,24 Гбайт (91%)
Библиотека кодирования : XviD 73
Аудио
Идентификатор : 1
Формат : AC-3
Формат/Информация : Audio Coding 3
Расширение режима : CM (complete main)
Параметр Endianness формата : Big
Идентификатор кодека : 2000
Продолжительность : 1 ч. 30 м.
Вид битрейта : Постоянный
Битрейт : 192 Кбит/сек
Каналы : 2 канала
Расположение каналов : Front: L R
Частота : 48,0 КГц
Частота кадров : 31,250 кадров/сек (1536 spf)
Метод сжатия : С потерями
Размер потока : 125 Мбайт (9%)
Выравнивание : Разделение по промежуткам
Продолжительность промежутка : 40 мс. (1,00 видеокадр)
Время предзагрузки промежутка : 500 мс.

Скриншот с названием фильма

Скриншоты


[cybertorrent.ru].t311.torrent 
Торрент: Зарегистрирован [ 2018-02-15 15:48 ] · 8E11203523615418CEAFDF329364D96DF45A2B1C

Скачать .torrent

Скачать

14 KB

Статус: проверено
Скачан: 0 раз
Размер: 1,37 GB
Профиль [ЛС]
Показать сообщения:    

Текущее время: 21-Май 20:13

Часовой пояс: UTC ± 0



Вы не можете начинать темы
Вы не можете отвечать на сообщения
Вы не можете редактировать свои сообщения
Вы не можете удалять свои сообщения
Вы не можете голосовать в опросах
Вы не можете прикреплять файлы к сообщениям
Вы можете скачивать файлы