Статистика раздачи
Размер:  548 MB   |    Зарегистрирован:  3 месяца 8 дней   |    Скачан:  0 раз

Полного источника не было: Никогда

Личеров:  4  [  0 KB/s  ]  
 
   
 
 

DR_KTO ®

Пол:
Не указан
Стаж:
3 месяца 9 дней
Сообщений:
309

Юсуповский дворец / Yusupov Palace
Дата/Год выпуска: 2011
Страна: Россия
Жанр: документальный, история, архитектура, искусство
Продолжительность: 00:46:46
Перевод: Не требуется
Русские субтитры: нет
Режиссер: Юрий Давыдов / Yuri Davydov
Телеканал: RTG
Описание: Юсуповский дворец — старинный петербургский особняк на набережной реки Мойка. Сочетание утонченного вкуса и колоссального богатства бывших владельцев этого дома позволяет окунуться в атмосферу величественной роскоши 19 века. Здесь давали лучшие балы в Петербурге, здесь собирался цвет высшего общества дореволюционной России. Однако всему миру этот дворец известен как место убийства Григория Распутина. Событие, о котором споры не угасают до сих пор. Дело, в котором еще очень много непонятного. Тайна, которая еще не раскрыта. В одном из самых роскошных и загадочных домов Санкт-Петербурга побывала ведущая Ольга Дегтярева.
Сэмпл: http://multi-up.com/1151955
качество: DVBRip
формат: AVI
Видео: Xvid 704x480 25fps 1497kbps
Аудио: MP3 48000Hz stereo 128kbps

MediaInfo

General
Complete name : F:\Архитектура\19. Юсуповский дворец.avi
Format : AVI
Format/Info : Audio Video Interleave
File size : 548 MiB
Duration : 46mn 46s
Overall bit rate : 1 639 Kbps
Video
ID : 0
Format : MPEG-4 Visual
Format profile : Advanced Simple@L5
Format settings, BVOP : 2
Format settings, QPel : No
Format settings, GMC : No warppoints
Format settings, Matrix : Default (H.263)
Codec ID : XVID
Codec ID/Hint : XviD
Duration : 46mn 46s
Bit rate : 1 498 Kbps
Width : 704 pixels
Height : 480 pixels
Display aspect ratio : 3:2
Frame rate : 25.000 fps
Standard : NTSC
Color space : YUV
Chroma subsampling : 4:2:0
Bit depth : 8 bits
Scan type : Progressive
Compression mode : Lossy
Bits/(Pixel*Frame) : 0.177
Stream size : 501 MiB (91%)
Writing library : XviD 64
Audio
ID : 1
Format : MPEG Audio
Format version : Version 1
Format profile : Layer 3
Codec ID : 55
Codec ID/Hint : MP3
Duration : 46mn 46s
Source duration : 46mn 46s
Bit rate mode : Constant
Bit rate : 128 Kbps
Channel(s) : 2 channels
Sampling rate : 48.0 KHz
Compression mode : Lossy
Stream size : 42.8 MiB (8%)
Alignment : Split accross interleaves
Interleave, duration : 24 ms (0.60 video frame)
Writing library : LAME3.99UЂ@9%°8†
Другие мои раздачи: архитектура, недвижимость, живопись http://cybertorrent.ru/tracker.php?rid=8171303
[cybertorrent.ru].t3234.torrent 
Торрент: Зарегистрирован [ 2018-02-16 17:30 ] · F54EB1B5F2CD683C28709C4349DDECDEEEC17DC7

Скачать .torrent

Скачать

11 KB

Статус: проверено
Скачан: 0 раз
Размер: 548 MB
Профиль [ЛС]
Показать сообщения:    

Текущее время: 24-Май 19:23

Часовой пояс: UTC ± 0



Вы не можете начинать темы
Вы не можете отвечать на сообщения
Вы не можете редактировать свои сообщения
Вы не можете удалять свои сообщения
Вы не можете голосовать в опросах
Вы не можете прикреплять файлы к сообщениям
Вы можете скачивать файлы