Статистика раздачи
Размер:  1,46 GB   |    Зарегистрирован:  3 месяца 12 дней   |    Скачан:  0 раз

Полного источника не было: Никогда

Личеров:  1  [  0 KB/s  ]  
 
   
 
 

lopster ®

Пол:
Не указан
Стаж:
3 месяца 12 дней
Сообщений:
612

Сумерки
Жанр: драма, триллер
Год выпуска: 2008
Продолжительность: 01:37:46
-
Режиссёр: Владимир Мосс
В ролях: Александр Безруков, Татьяна Плетнева, Денис Чуприна, Александр Трошин, Лариса Логинова, Мария Жильченко, Динара Янковская, Руслан Мурадасилов, Нина Семенова, Татьяна Бондаренко
-
Описание: У молодого героя фильма, казалось бы, есть все — и квартира, и работа, и любимая девушка. Иван живёт монотонно, по инерции, «в сумерках», не задумываясь над смыслом своего существования. В личной жизни героя заставляют его принимать решения, ставящие его лицом к лицу с самим собой...
-
Доп. информация:
-
Сэмпл: http://sendfile.su/1354085
-
Качество видео: TVRip (Valeronius)
Формат видео: MKV
Видео: 672x288 (2.35:1), 25 fps, AVC, ~1 940 Kbps, 0.401 bits/pixel
Аудио: 48 kHz, AC3 Dolby Digital, 2/0 (L,R) ch, ~192 kbps

MediaInfo

x264 [info]: frame I:1169 Avg QP:10.81 size: 27588
x264 [info]: frame P:20781 Avg QP:12.94 size: 18040
x264 [info]: frame B:124698 Avg QP:15.03 size: 8140-General
Unique ID : 240352749055113333956860690093679469753 (0xB4D241731254CA90B7657F73580664B9)
Complete name : C:\Users\ALEX\Desktop\Фильмы\Сумерки.2008.TVRip-AVC.x264.AC3.mkv
Format : Matroska
Format version : Version 4 / Version 2
File size : 1.46 GiB
Duration : 1 h 37 min
Overall bit rate : 2 133 kb/s
Encoded date : UTC 2017-08-08 17:12:20
Writing application : mkvmerge v8.5.2 ('Crosses') 64bit
Writing library : libebml v1.3.3 + libmatroska v1.4.4
Video
ID : 1
Format : AVC
Format/Info : Advanced Video Codec
Format profile : High@L4.1
Format settings, CABAC : Yes
Format settings, ReFrames : 12 frames
Codec ID : V_MPEG4/ISO/AVC
Duration : 1 h 37 min
Bit rate : 1 940 kb/s
Width : 672 pixels
Height : 288 pixels
Display aspect ratio : 2.35:1
Frame rate mode : Constant
Frame rate : 25.000 FPS
Color space : YUV
Chroma subsampling : 4:2:0
Bit depth : 8 bits
Scan type : Progressive
Bits/(Pixel*Frame) : 0.401
Stream size : 1.32 GiB (91%)
Title : Сумерки
Writing library : x264 core 148 r2744 b97ae06
Encoding settings : cabac=1 / ref=12 / deblock=1:-1:-1 / analyse=0x3:0x113 / me=umh / subme=11 / psy=1 / psy_rd=1.00:0.00 / mixed_ref=1 / me_range=32 / chroma_me=1 / trellis=2 / 8x8dct=1 / cqm=0 / deadzone=21,11 / fast_pskip=0 / chroma_qp_offset=-2 / threads=6 / lookahead_threads=1 / sliced_threads=0 / nr=0 / decimate=1 / interlaced=0 / bluray_compat=0 / constrained_intra=0 / bframes=10 / b_pyramid=2 / b_adapt=1 / b_bias=0 / direct=3 / weightb=1 / open_gop=0 / weightp=2 / keyint=250 / keyint_min=25 / scenecut=40 / intra_refresh=0 / rc=2pass / mbtree=0 / bitrate=1940 / ratetol=1.0 / qcomp=0.60 / qpmin=0 / qpmax=69 / qpstep=4 / cplxblur=20.0 / qblur=0.5 / ip_ratio=1.40 / pb_ratio=1.30 / aq=1:1.00
Language : Russian
Default : No
Forced : No
Audio
ID : 2
Format : AC-3
Format/Info : Audio Coding 3
Format settings, Endianness : Big
Codec ID : A_AC3
Duration : 1 h 37 min
Bit rate mode : Constant
Bit rate : 192 kb/s
Channel(s) : 2 channels
Channel positions : Front: L R
Sampling rate : 48.0 kHz
Frame rate : 31.250 FPS (1536 spf)
Bit depth : 16 bits
Compression mode : Lossy
Stream size : 134 MiB (9%)
Title : Оригинал
Language : Russian
Service kind : Complete Main
Default : No
Forced : No

Скриншоты

[cybertorrent.ru].t348.torrent 
Торрент: Зарегистрирован [ 2018-02-15 15:48 ] · 9CBB0990E2E29C349D9AE2C0199899FDEC3B18B9

Скачать .torrent

Скачать

15 KB

Статус: проверено
Скачан: 0 раз
Размер: 1,46 GB
Профиль [ЛС]
Показать сообщения:    

Текущее время: 27-Май 19:44

Часовой пояс: UTC ± 0



Вы не можете начинать темы
Вы не можете отвечать на сообщения
Вы не можете редактировать свои сообщения
Вы не можете удалять свои сообщения
Вы не можете голосовать в опросах
Вы не можете прикреплять файлы к сообщениям
Вы можете скачивать файлы