Статистика раздачи
Размер:  1,37 GB   |    Зарегистрирован:  3 месяца 9 дней   |    Скачан:  0 раз
Сидов:  63  [  0 KB/s  ]  
 
   
 
 

lopster ®

Пол:
Не указан
Стаж:
3 месяца 9 дней
Сообщений:
612

Бабушка лёгкого поведения
Жанр: комедия
Год выпуска: 2017
Продолжительность: 01:21:23
Режиссер: Марюс Вайсберг
В ролях: Александр Ревва, Глюкоза, Филипп Киркоров, Елена Валюшкина, Владимир Толоконников, Евгений Герчаков, Ёла Санько, Ольга Благая, Наталья Бардо, Марина Федункив
Описание:
Мастер перевоплощений Саня по прозвищу Трансформер провернул кучу афер, точь-в-точь изображая десятки персонажей. Но в этот раз он украл не у тех… Теперь у парня на хвосте очень плохие люди с пистолетами. Саня решает залечь на дно в доме престарелых в образе пожилой тети. И когда ему казалось, что он попал в безвыходную ситуацию, новый поворот судьбы дарит ему любовь и надежду превратиться в приличного человека.

Автор рипа: stalkerok
Сэмпл
Качество видео: WEB-DLRip-AVC [Бабушка легкого поведения (2017) WEB-DL 1080p -BLUEBIRD]
Формат видео: MKV
Видео: 2026 Кбит/сек, 1024*576 (16:9), в 25,000 кадров/сек, AVC
Аудио: русский, 384 Кбит/сек, 48,0 КГц, 6 каналов, AC-3 [iTunes]
Навигация по главам: нет

x264/MediaInfo

x264 [info]: frame I:1663 Avg QP:17.27 size: 61441
x264 [info]: frame P:32545 Avg QP:19.12 size: 19654
x264 [info]: frame B:87867 Avg QP:21.95 size: 5628
Общее
Уникальный идентификатор : 209827693997021159737181145060339997425 (0x9DDB580A07E535F88194B4C227A5DAF1)
Полное имя : M:\!Rips2017\blp\Babushka.legkogo.povedenija.2017.WEB-DLRip-AVC.RUS.stalkerok.new-team.mkv
Формат : Matroska
Версия формата : Version 4 / Version 2
Размер файла : 1,37 Гбайт
Продолжительность : 1 ч. 21 м.
Общий поток : 2411 Кбит/сек
Название фильма : Бабушка лёгкого поведения (2017) (Rip by stalkerok)
Дата кодирования : UTC 2017-09-15 22:12:23
Программа кодирования : mkvmerge v8.6.1 ('Flying') 64bit
Библиотека кодирования : libebml v1.3.3 + libmatroska v1.4.4
Видео
Идентификатор : 1
Формат : AVC
Формат/Информация : Advanced Video Codec
Профиль формата : High@L4.1
Параметр CABAC формата : Да
Параметр ReFrames формата : 13 кадров
Идентификатор кодека : V_MPEG4/ISO/AVC
Продолжительность : 1 ч. 21 м.
Битрейт : 2026 Кбит/сек
Ширина : 1024 пикселя
Высота : 576 пикселей
Соотношение сторон : 16:9
Режим частоты кадров : Постоянный
Частота кадров : 25,000 кадров/сек
Цветовое пространство : YUV
Субдискретизация насыщенности : 4:2:0
Битовая глубина : 8 бит
Тип развёртки : Прогрессивная
Бит/(Пиксели*Кадры) : 0.137
Размер потока : 1,15 Гбайт (84%)
Заголовок : Бабушка лёгкого поведения (2017) (Rip by stalkerok)
Библиотека кодирования : x264 core 150 r2833kMod df79067
Настройки программы : cabac=1 / ref=13 / deblock=1:-3:-2 / analyse=0x3:0x133 / me=umh / subme=11 / psy=1 / fade_compensate=0.00 / psy_rd=1.00:0.00 / mixed_ref=1 / me_range=32 / chroma_me=1 / trellis=2 / 8x8dct=1 / cqm=0 / deadzone=21,11 / fast_pskip=0 / chroma_qp_offset=-2 / threads=12 / lookahead_threads=3 / sliced_threads=0 / nr=0 / decimate=1 / interlaced=0 / bluray_compat=0 / constrained_intra=0 / bframes=13 / b_pyramid=2 / b_adapt=2 / b_bias=0 / direct=3 / weightb=1 / open_gop=0 / weightp=2 / keyint=250 / keyint_min=25 / scenecut=40 / intra_refresh=0 / rc_lookahead=60 / rc=crf / mbtree=0 / crf=19.4000 / qcomp=0.65 / qpmin=0 / qpmax=69 / qpstep=4 / vbv_maxrate=50000 / vbv_bufsize=62500 / crf_max=0.0 / nal_hrd=none / filler=0 / ip_ratio=1.40 / pb_ratio=1.30 / aq=3:0.80
Default : Да
Forced : Нет
Аудио
Идентификатор : 2
Формат : AC-3
Формат/Информация : Audio Coding 3
Расширение режима : CM (complete main)
Параметр Endianness формата : Big
Идентификатор кодека : A_AC3
Продолжительность : 1 ч. 21 м.
Вид битрейта : Постоянный
Битрейт : 384 Кбит/сек
Каналы : 6 каналов
Расположение каналов : Front: L C R, Side: L R, LFE
Частота : 48,0 КГц
Частота кадров : 31,250 кадров/сек (1536 spf)
Метод сжатия : С потерями
Размер потока : 224 Мбайт (16%)
Заголовок : [ORIGINAL] DD 5.1 @ 384 kbps (iTunes)
Язык : Russian
Default : Да
Forced : Нет
Меню
00:00:00.000 : en:Глава 1
00:06:11.840 : en:Глава 2
00:13:09.240 : en:Глава 3
00:20:45.360 : en:Глава 4
00:27:20.000 : en:Глава 5
00:34:28.520 : en:Глава 6
00:40:12.840 : en:Глава 7
00:44:56.280 : en:Глава 8
00:50:44.320 : en:Глава 9
00:56:21.280 : en:Глава 10
01:00:25.920 : en:Глава 11
01:03:53.480 : en:Глава 12
01:10:30.440 : en:Глава 13
01:17:02.280 : en:Глава 14

Скриншоты

[cybertorrent.ru].t377.torrent 
Торрент: Зарегистрирован [ 2018-02-15 15:48 ] · 1208EDC01F58EC7FBECD0549E9A80AC4DB9682A8

Скачать .torrent

Скачать

14 KB

Статус: проверено
Скачан: 0 раз
Размер: 1,37 GB
Профиль [ЛС]
Показать сообщения:    

Текущее время: 24-Май 19:41

Часовой пояс: UTC ± 0



Вы не можете начинать темы
Вы не можете отвечать на сообщения
Вы не можете редактировать свои сообщения
Вы не можете удалять свои сообщения
Вы не можете голосовать в опросах
Вы не можете прикреплять файлы к сообщениям
Вы можете скачивать файлы