Статистика раздачи
Размер:  3,21 GB   |    Зарегистрирован:  6 месяцев 3 дня   |    Скачан:  0 раз

Полного источника не было: Никогда

 
   
 
 

Симка ®

Пол:
Не указан
Стаж:
6 месяцев 5 дней
Сообщений:
73

Токийский гуль (ТВ-1) / Tokyo Ghoul [TV]
Страна: Япония
Год выпуска: 2014
Жанр: приключения, мистика, ужасы, сэйнэн
Тип: TV
Продолжительность: 12 эп. по ~23 мин.
Озвучка: Многоголосая закадровая (студия Zone Vision) (лицензия)-Режиссер: Морита Сюхэй
Студия: Studio Pierrot-Описание: Раса гулей существует с незапамятных времен. Ее представители вовсе не против людей, они их даже любят – преимущественно в сыром виде. Любители человечины внешне неотличимы от нас, сильны, быстры и живучи – но их мало, потому гули выработали строгие правила охоты и маскировки, а нарушителей наказывают сами или по-тихому сдают борцам с нечистью. В век науки люди знают про гулей, но как говорится, привыкли. Власти не считают людоедов угрозой, более того, рассматривают их как идеальную основу для создания суперсолдат. Эксперименты идут уже давно…
Ничего этого не ведал Кэн Канэки, робкий и невзрачный токийский первокурсник, безнадежно влюбленный в красавицу-интеллектуалку Ризэ, частую гостью в кафе «Место встречи», где парень подрабатывает официантом. Не думал Кэн, что скоро самому придется стать гулем, и многие знакомые предстанут в неожиданном свете. Главному герою предстоит мучительный поиск нового пути, ибо он понял, что люди и гули похожи: просто одни друг друга жрут в прямом смысле, другие – в переносном. Правда жизни жестока, переделать ее нельзя, и силен тот, кто не отворачивается. А дальше уж как-нибудь!
© Hollow, World Art-Качество: SATRip
Тип релиза: без хардсаба, без линковки
Формат видео: MKV
Видео кодек: AVC
Аудио кодек: MPEG1
Автор рипа: Zwery
Видео: AVC, 720x576, 8 bits, ~1631 kbps, ~29.629 fps
Аудио: RU(int), MPEG1, 2 ch, 192 kbps, 48 kHz (в составе контейнера)
Сэмпл: http://multi-up.com/1178644-

Список эпизодов

01. Трагедия
02. Инкубация
03. Голуби
04. Ужин
05. Шрам
06. Ливень
07. Плен
08. Круговорот
09. Птичья клетка
10. Аогири
11. Воодушевление
12. Гуль

MediaInfo

General
Unique ID : 200675547340903673307099440143821426964 (0x96F8B45EE5A6CDF1A92D0D64776FD114)
Complete name : E:\Anime\Tokyo.Ghoul.S01E01-12.MPEG4.2014.SATRip\Tokyo.Ghoul.S01E01.MPEG4.2014.SATRip.mkv
Format : Matroska
Format version : Version 4 / Version 2
File size : 310 MiB
Duration : 23 min 43 s
Overall bit rate : 1 826 kb/s
Encoded date : UTC 2017-12-04 17:41:07
Writing application : mkvmerge v18.0.0 ('Apricity') 64-bit
Writing library : libebml v1.3.5 + libmatroska v1.4.8
Video
ID : 1
Format : AVC
Format/Info : Advanced Video Codec
Format profile : High@L3
Format settings : CABAC / 3 Ref Frames
Format settings, CABAC : Yes
Format settings, RefFrames : 3 frames
Codec ID : V_MPEG4/ISO/AVC
Duration : 23 min 43 s
Bit rate : 1 631 kb/s
Width : 720 pixels
Height : 576 pixels
Display aspect ratio : 4:3
Original display aspect rat : 4:3
Frame rate mode : Variable
Frame rate : 29.629 FPS
Original frame rate : 25.000 FPS
Standard : Component
Color space : YUV
Chroma subsampling : 4:2:0
Bit depth : 8 bits
Scan type : Interlaced
Scan type, store method : Separated fields
Scan order : Top Field First
Bits/(Pixel*Frame) : 0.133
Stream size : 277 MiB (89%)
Default : Yes
Forced : No
Color range : Limited
Color primaries : BT.601 PAL
Transfer characteristics : BT.470 System B, BT.470 System G
Matrix coefficients : BT.470 System B, BT.470 System G
Audio
ID : 2
Format : MPEG Audio
Format version : Version 1
Format profile : Layer 2
Codec ID : A_MPEG/L2
Codec ID/Hint : MP2
Duration : 23 min 43 s
Bit rate mode : Constant
Bit rate : 192 kb/s
Channel(s) : 2 channels
Sampling rate : 48.0 kHz
Frame rate : 41.667 FPS (1152 SPF)
Compression mode : Lossy
Stream size : 32.6 MiB (11%)
Language : Russian
Default : Yes
Forced : No
[cybertorrent.ru].t3891.torrent 
Торрент: Зарегистрирован [ 2018-02-17 01:52 ] · 1E06912E73C0A1CFD95F8C98561CE0AB6FA30DFA

Скачать .torrent

Скачать

17 KB

Статус: проверено
Скачан: 0 раз
Размер: 3,21 GB
Профиль [ЛС]
Показать сообщения:    

Текущее время: 20-Авг 20:52

Часовой пояс: UTC ± 0



Вы не можете начинать темы
Вы не можете отвечать на сообщения
Вы не можете редактировать свои сообщения
Вы не можете удалять свои сообщения
Вы не можете голосовать в опросах
Вы не можете прикреплять файлы к сообщениям
Вы можете скачивать файлы
Torrents24.ru открытый BitTorrent Torrents24.pl открытый BitTorrent CyberTorrent.ru открытый BitTorrent BtList.ru рейтинг BitTorrent трекеров Яндекс.Метрика