Статистика раздачи
Размер:  2,39 GB   |    Зарегистрирован:  6 месяцев   |    Скачан:  0 раз

Полного источника не было: Никогда

 
   
 
 

zaja ®

Пол:
Не указан
Стаж:
6 месяцев 1 день
Сообщений:
48

Заботливые мишки
The Care Bears Movie
«A movie that'll make the whole family care-a-lot» Год выпуска: 1985
Страна: Канада, США
Жанр: мультфильм, фэнтези, комедия, приключения, семейный
Продолжительность: 01:16:03
Перевод: Авторский (Одноголосый закадровый) - Леонид Володарский
субтитры: отсутствуют-Режиссёр: Арна Зелцник : Arna Selznick-Роли озвучивали: Микки Руни, Джеки Барроуз, Джорджия Энджел, Санни Бесен Трэшер, Ева Олмос, Патриция Блэк, Мэллени Браун, Боб Дэрмер, Джейн Иствуд, Анни Эванс-Описание: Мультфильм о веселых и добрых медвежатах, которые всегда придут на помощь. В этой части они помогают мальчику освободиться от колдуньи, которая хотела сделать его злым.- релиз: -- За Л. Володарского и оригинальную дорогу большое спасибо multmir
- За работу со звуком большое спасибо *Sergeant_am*
- Покупка и работа с WEB-DL -Azureus--Качество: WEB-DL 720p
Формат: MKV
Видео кодек: AVC
Аудио кодек: AC3
Видео: 964x720, 23,976 fps, ~4050 kbps avg, 0.243 bit/pixel
Аудио #1: [RUS] 48 kHz, AC3 Dolby Digital, 2/0 (L,R) ch, ~224 kbps avg
Аудио #2: [ENG] 48 kHz, AC3 Dolby Digital, 2/0 (L,R) ch, ~224 kbps avg
навигация по главам: 7 глав (не именные)

MI

Общее
Уникальный идентификатор : 200355962785605265269405569181630357983 (0x96BB27A2B63094929934D19B57A061DF)
Полное имя : D:\Mult\The Care Bears Movie\The Care Bears Movie.1985.WEB-DL 720p.mkv
Формат : Matroska
Версия формата : Version 4 / Version 2
Размер файла : 2,39 Гбайт
Продолжительность : 1 ч. 16 м.
Общий поток : 4500 Кбит/сек
Название фильма : The Care Bears Movie.1985.WEB-DL 720p -Azureus-
Дата кодирования : UTC 2017-12-05 18:38:18
Программа кодирования : mkvmerge v13.0.0 ('The Juggler') 64bit
Библиотека кодирования : libebml v1.3.4 + libmatroska v1.4.5
Видео
Идентификатор : 1
Формат : AVC
Формат/Информация : Advanced Video Codec
Профиль формата : Main@L3.1
Настройки формата : 2 Ref Frames
Параметр CABAC формата : Нет
Параметр RefFrames формата : 2 кадра
Идентификатор кодека : V_MPEG4/ISO/AVC
Продолжительность : 1 ч. 16 м.
Битрейт : 4050 Кбит/сек
Ширина : 964 пикселя
Высота : 720 пикселей
Соотношение сторон : 4:3
Режим частоты кадров : Постоянный
Частота кадров : 23,976 (23976/1000) кадра/сек
Цветовое пространство : YUV
Субдискретизация насыщенности : 4:2:0
Битовая глубина : 8 бит
Тип развёртки : Прогрессивная
Бит/(Пиксели*Кадры) : 0.243
Размер потока : 2,15 Гбайт (90%)
Язык : English
Default : Да
Forced : Нет
Цветовой диапазон : Limited
Основные цвета : BT.709
Характеристики трансфера : BT.709
Коэффициенты матрицы : BT.709
Аудио #1
Идентификатор : 2
Формат : AC-3
Формат/Информация : Audio Coding 3
Параметр Endianness формата : Big
Идентификатор кодека : A_AC3
Продолжительность : 1 ч. 16 м.
Вид битрейта : Постоянный
Битрейт : 224 Кбит/сек
Каналы : 2 канала
Расположение каналов : Front: L R
Частота : 48,0 КГц
Частота кадров : 31,250 кадров/сек (1536 SPF)
Битовая глубина : 16 бит
Метод сжатия : С потерями
Размер потока : 122 Мбайт (5%)
Заголовок : AVO - Л. Володарский
Язык : Russian
ServiceKind/String : Complete Main
Default : Да
Forced : Нет
Аудио #2
Идентификатор : 3
Формат : AC-3
Формат/Информация : Audio Coding 3
Параметр Endianness формата : Big
Идентификатор кодека : A_AC3
Продолжительность : 1 ч. 16 м.
Вид битрейта : Постоянный
Битрейт : 224 Кбит/сек
Каналы : 2 канала
Расположение каналов : Front: L R
Частота : 48,0 КГц
Частота кадров : 31,250 кадров/сек (1536 SPF)
Битовая глубина : 16 бит
Метод сжатия : С потерями
Размер потока : 122 Мбайт (5%)
Заголовок : ENG
Язык : English
ServiceKind/String : Complete Main
Default : Нет
Forced : Нет
Меню
00:00:00.000 : en:1
00:09:38.000 : en:2
00:20:42.000 : en:3
00:31:12.000 : en:4
00:45:54.000 : en:5
00:55:08.000 : en:6
01:04:54.000 : en:7
[cybertorrent.ru].t3896.torrent 
Торрент: Зарегистрирован [ 2018-02-17 01:52 ] · A837C0D5D90CE7FBE9D0BEE59D5F120B658FB5D3

Скачать .torrent

Скачать

12 KB

Статус: проверено
Скачан: 0 раз
Размер: 2,39 GB
Профиль [ЛС]
Показать сообщения:    

Текущее время: 17-Авг 03:30

Часовой пояс: UTC ± 0



Вы не можете начинать темы
Вы не можете отвечать на сообщения
Вы не можете редактировать свои сообщения
Вы не можете удалять свои сообщения
Вы не можете голосовать в опросах
Вы не можете прикреплять файлы к сообщениям
Вы можете скачивать файлы
Torrents24.ru открытый BitTorrent Torrents24.pl открытый BitTorrent CyberTorrent.ru открытый BitTorrent BtList.ru рейтинг BitTorrent трекеров Яндекс.Метрика