Статистика раздачи
Размер:  455 MB   |    Зарегистрирован:  3 месяца 9 дней   |    Скачан:  0 раз

Полного источника не было: Никогда

Личеров:  1  [  0 KB/s  ]  
 
   
 
 

Ласточка ®

Пол:
Не указан
Стаж:
3 месяца 11 дней
Сообщений:
264

Свято-Данилов мужской монастырь- Дата/Год выпуска: 2014
Страна: Россия
Жанр: документальный, познавательный, православие
Продолжительность: 00:37:52-Режиссер: Юрий Давыдов / Yuri Davydov-Телеканал: RTG HD-Описание: На берегу Москвы-реки более 8 веков назад возникло поселение - будущий стольный град Москва. Поселение досталось в наследство младшему сыну великого князя Александра Невского - Даниилу. Ранее не имевшее своего князя, оно было одним из самых слабых и незначительных на Руси. Для укрепления московского княжества и единения людей князь Даниил основал мужской монастырь, ставший первым в российской столице...-Доп. информация: За исходник спасибо kyba62.-Сэмпл-качество: HDTVRip
формат: AVI
Видео: XviD, 720x400 (16:9), 25.000 fps, 1 543 Kbps (0.214 bit/pixel)
Аудио: MP3, 48.0 KHz, 2 ch, 128 Kbps, CBR - русский

MediaInfo

Общее
Полное имя : D:\Раздачи\Свято-Данилов мужской монастырь (HDTVRip).avi
Формат : AVI
Формат/Информация : Audio Video Interleave
Размер файла : 455 Мбайт
Продолжительность : 37 м.
Общий поток : 1681 Кбит/сек
Программа кодирования : VirtualDubMod 1.5.10.2 (build 2540/release)
Библиотека кодирования : VirtualDubMod build 2540/release
Видео
Идентификатор : 0
Формат : MPEG-4 Visual
Профиль формата : Advanced Simple@L5
Параметр BVOP формата : 2
Параметр QPel формата : Нет
Параметр GMC формата : Без точки перехода
Параметр матрицы формата : Default (H.263)
Идентификатор кодека : XVID
Идентификатор кодека/Подсказка : XviD
Продолжительность : 37 м.
Битрейт : 1543 Кбит/сек
Ширина : 720 пикселей
Высота : 400 пикселей
Соотношение сторон : 16:9
Частота кадров : 25,000 кадров/сек
Цветовое пространство : YUV
Субдискретизация насыщенности : 4:2:0
Битовая глубина : 8 бит
Тип развёртки : Прогрессивная
Метод сжатия : С потерями
Бит/(Пиксели*Кадры) : 0.214
Размер потока : 418 Мбайт (92%)
Библиотека кодирования : XviD 1.2.1 (UTC 2008-12-04)
Аудио
Идентификатор : 1
Формат : MPEG Audio
Версия формата : Version 1
Профиль формата : Layer 3
Режим : Joint stereo
Расширение режима : MS Stereo
Идентификатор кодека : 55
Идентификатор кодека/Подсказка : MP3
Продолжительность : 37 м.
Вид битрейта : Постоянный
Битрейт : 128 Кбит/сек
Каналы : 2 канала
Частота : 48,0 КГц
Метод сжатия : С потерями
Размер потока : 34,7 Мбайт (8%)
Выравнивание : Соединение по промежуткам
Продолжительность промежутка : 40 мс. (1,00 видеокадр)
Время предзагрузки промежутка : 504 мс.

Скриншоты


[cybertorrent.ru].t4062.torrent 
Торрент: Зарегистрирован [ 2018-02-17 01:52 ] · 275EC61365916DC491A833B81AFC86F8201EE35B

Скачать .torrent

Скачать

18 KB

Статус: проверено
Скачан: 0 раз
Размер: 455 MB
Профиль [ЛС]
Показать сообщения:    

Текущее время: 26-Май 19:44

Часовой пояс: UTC ± 0



Вы не можете начинать темы
Вы не можете отвечать на сообщения
Вы не можете редактировать свои сообщения
Вы не можете удалять свои сообщения
Вы не можете голосовать в опросах
Вы не можете прикреплять файлы к сообщениям
Вы можете скачивать файлы