Статистика раздачи
Размер:  11,07 GB   |    Зарегистрирован:  3 месяца 9 дней   |    Скачан:  0 раз

Полного источника не было: Никогда

Личеров:  1  [  0 KB/s  ]  
 
   
 
 

Crazy ®

Пол:
Не указан
Стаж:
3 месяца 11 дней
Сообщений:
363

Истребитель "Чёрное облако" / Zerosen Kurokumo ikka
Страна: Япония
Студия: Nihon Eiga Senmon Channel (HD)
Жанр: военный, драма
Год выпуска: 1962
Продолжительность: 01:49:38
Перевод: Одноголосый закадровый (den904) по субтитрам (Dekadansu)
Субтитры: нет
Оригинальная аудиодорожка: японский
Режиссер: Тосио Масуда /Toshio Masuda
В ролях: Юдзиро Исихара, Хидэаки Нитани, Сиро Осака, Мисако Ватанабэ, Кодзиро Кусанаги, Хироси Кондо, Сёбун Иноуэ, Мицуо Хамада, Рёхэй Утида, Синскэ Асида.
Описание: После поражения японского императорского военно-морского флота от американских сил в битве за Гуадалканал, капитан Ган Танимура получает приказ возглавить отряд состоящий из пилотов-изгоев, худших пилотов набранных по всем фронтам. Отряд дислоцируется на одном из отдалённых островов в южной части Тихого океана. Американские самолёты не достигли острова, но, пилоты прекрасно знают, что американцы продвигаются всё ближе и ближе. С самого начала, Танимура сталкивается с предводителем пилотов Ягумо, который откровенно заявляет, что не собирается умирать в бою. Но постепенно они начинают доверять друг другу и когда американцы, наконец, нападают на остров, вместе вступают в бой.
Доп. информация: Перевод Dekadansu. За появление релиза спасибо: alinto, Ryutaro, a2000s, Riderman, Der eiserne Wolf, atomic dragonfly, умелец54, yanaelisa, Drenkens, duum100, Ихтыргым. Материал любезно предоставлен kofka19, всем спасибо.
Релиз:
Сэмпл: http://sendfile.su/1386347
Тип релиза: HDTV 1080i
Контейнер: MKV
Видео: MPEG-2, 1920x1080 at 29.970 fps, ~14100 Kbps avg
Аудио 1: Russian (Dolby AC3, 2 ch, 192 kbps)
Аудио 2: Japanese (Dolby AC3, 2 ch, 192 kbps)

MediaInfo

Format : Matroska
Format version : Version 4 / Version 2
File size : 11.1 GiB
Duration : 1 h 49 min
Overall bit rate mode : Variable
Overall bit rate : 14.5 Mb/s
Encoded date : UTC 2017-12-14 20:54:14
Writing application : mkvmerge v9.9.0 ('Pick Up') 32bit
Writing library : libebml v1.3.4 + libmatroska v1.4.5
Video
ID : 1
Format : MPEG Video
Format version : Version 2
Format profile : Main@High
Format settings : CustomMatrix / BVOP
Format settings, BVOP : Yes
Format settings, Matrix : Custom
Format settings, GOP : M=3, N=15
Format settings, picture structure : Frame
Codec ID : V_MPEG2
Codec ID/Info : MPEG 1 or 2 Video
Duration : 1 h 49 min
Bit rate mode : Variable
Bit rate : 14.1 Mb/s
Maximum bit rate : 24.0 Mb/s
Width : 1 920 pixels
Height : 1 080 pixels
Display aspect ratio : 16:9
Frame rate mode : Constant
Frame rate : 29.970 (29970/1000) FPS
Original frame rate : 29.970 (30000/1001) FPS
Standard : Component
Color space : YUV
Chroma subsampling : 4:2:0
Bit depth : 8 bits
Scan type : Interlaced
Scan order : Top Field First
Compression mode : Lossy
Bits/(Pixel*Frame) : 0.302
Time code of first frame : 00:00:00:28
Time code source : Group of pictures header
GOP, Open/Closed : Open
Stream size : 10.8 GiB (97%)
Default : Yes
Forced : No
Color primaries : BT.709
Transfer characteristics : BT.709
Matrix coefficients : BT.709
Audio #1
ID : 2
Format : AC-3
Format/Info : Audio Coding 3
Codec ID : A_AC3
Duration : 1 h 49 min
Bit rate mode : Constant
Bit rate : 192 kb/s
Channel(s) : 2 channels
Channel positions : Front: L R
Sampling rate : 48.0 kHz
Frame rate : 31.250 FPS (1536 SPF)
Bit depth : 16 bits
Compression mode : Lossy
Delay relative to video : 90 ms
Stream size : 151 MiB (1%)
Language : Russian
Service kind : Complete Main
Default : Yes
Forced : No
Audio #2
ID : 3
Format : AC-3
Format/Info : Audio Coding 3
Codec ID : A_AC3
Duration : 1 h 49 min
Bit rate mode : Constant
Bit rate : 192 kb/s
Channel(s) : 2 channels
Channel positions : Front: L R
Sampling rate : 48.0 kHz
Frame rate : 31.250 FPS (1536 SPF)
Bit depth : 16 bits
Compression mode : Lossy
Delay relative to video : 90 ms
Stream size : 151 MiB (1%)
Language : Japanese
Service kind : Complete Main
Default : No
Forced : No

Скриншот названия фильма

Скриншоты

[cybertorrent.ru].t4081.torrent 
Торрент: Зарегистрирован [ 2018-02-17 01:52 ] · 149E7387B2871A7586EDE0BDCF578460CFE1101C

Скачать .torrent

Скачать

56 KB

Статус: проверено
Скачан: 0 раз
Размер: 11,07 GB
Профиль [ЛС]
Показать сообщения:    

Текущее время: 26-Май 17:18

Часовой пояс: UTC ± 0



Вы не можете начинать темы
Вы не можете отвечать на сообщения
Вы не можете редактировать свои сообщения
Вы не можете удалять свои сообщения
Вы не можете голосовать в опросах
Вы не можете прикреплять файлы к сообщениям
Вы можете скачивать файлы