Статистика раздачи
Размер:  1,14 GB   |    Зарегистрирован:  3 месяца 9 дней   |    Скачан:  0 раз

Полного источника не было: Никогда

 
   
 
 

kex ®

Пол:
Не указан
Стаж:
3 месяца 11 дней
Сообщений:
324

Мышиная история / A Mouse Tale
Страна: Аргентина, Перу, США
Жанр: Мультфильм, приключения
Продолжительность: 01:32:15
Год выпуска: 2015
Перевод: Одноголосый закадровый Barin101
Русские субтитры: нет
Режиссёр: Давид Бисбано / David Bisbano, Михал Симка / Mychal Simka
Описание: Однажды, давным-давно, жила-была Зубная Фея.
Ну ладно.
Фея, конечно, была, но эта история о другой зверушке. Он любит сыр и ненавидит кошек. Он нашёл волшебную палочку, и помог феям создавать зелья и творить заклинания, и оставлять монету под подушкой, когда у вас выпадет зуб.
Всё верно, я говорю о мышонке.
М-Ы-Ш-О-Н-О-К
Согласно Древнему Пророчеству, он стал Избранным и смог победить Тёмного Грызуна - крысу, решившего захватить Мышиное Королевство.
Семпл: http://multi-up.com/1180700
IMDB
Кинопоиск
Качество: DVDRip
Формат: AVI
Видео: 720x320 (2.25:1), 23.976 fps, XviD build 46 ~1499 kbps avg, 0.27 bit/pixel
Аудио: #1: 48 kHz, MPEG Layer 3, 2 ch, ~128.00 kbps avg РУС Barin101
Аудио: #2: 48 kHz, MPEG Layer 3, 2 ch, ~128.00 kbps avg ENG Original
Субтитры: Отсутствуют

Подробные технические данные

General
Complete name : A:\A.Mouse.Tale.2015.DVDRip.XviD-Barin101.avi
Format : AVI
Format/Info : Audio Video Interleave
File size : 1.14 GiB
Duration : 1h 32mn
Overall bit rate : 1 770 Kbps
Writing application : VirtualDubMod 1.5.10.2 (build 2540/release)
Writing library : VirtualDubMod build 2540/release
Video
ID : 0
Format : MPEG-4 Visual
Format profile : Simple@L3
Format settings, BVOP : No
Format settings, QPel : No
Format settings, GMC : No warppoints
Format settings, Matrix : Default (H.263)
Codec ID : XVID
Codec ID/Hint : XviD
Duration : 1h 32mn
Bit rate : 1 500 Kbps
Width : 720 pixels
Height : 320 pixels
Display aspect ratio : 2.25:1
Frame rate : 23.976 fps
Color space : YUV
Chroma subsampling : 4:2:0
Bit depth : 8 bits
Scan type : Progressive
Compression mode : Lossy
Bits/(Pixel*Frame) : 0.272
Stream size : 990 MiB (85%)
Writing library : XviD 1.1.2 (UTC 2006-11-01)
Audio #1
ID : 1
Format : MPEG Audio
Format version : Version 1
Format profile : Layer 3
Mode : Joint stereo
Mode extension : MS Stereo
Codec ID : 55
Codec ID/Hint : MP3
Duration : 1h 32mn
Bit rate mode : Constant
Bit rate : 128 Kbps
Channel(s) : 2 channels
Sampling rate : 48.0 KHz
Compression mode : Lossy
Stream size : 84.5 MiB (7%)
Alignment : Aligned on interleaves
Interleave, duration : 42 ms (1.00 video frame)
Interleave, preload duration : 504 ms
Writing library : LAME3.98r
Encoding settings : -m j -V 4 -q 3 -lowpass 17 -b 128
Audio #2
ID : 2
Format : MPEG Audio
Format version : Version 1
Format profile : Layer 3
Mode : Joint stereo
Mode extension : MS Stereo
Codec ID : 55
Codec ID/Hint : MP3
Duration : 1h 32mn
Bit rate mode : Constant
Bit rate : 128 Kbps
Channel(s) : 2 channels
Sampling rate : 48.0 KHz
Compression mode : Lossy
Stream size : 84.5 MiB (7%)
Alignment : Split accross interleaves
Interleave, duration : 42 ms (1.00 video frame)
Interleave, preload duration : 500 ms
Writing library : LAME3.98

Скриншоты



[cybertorrent.ru].t4083.torrent 
Торрент: Зарегистрирован [ 2018-02-17 01:52 ] · FD3E4BDC561D689C2C88569F8B6F4E50F569857A

Скачать .torrent

Скачать

23 KB

Статус: проверено
Скачан: 0 раз
Размер: 1,14 GB
Профиль [ЛС]
Показать сообщения:    

Текущее время: 26-Май 17:12

Часовой пояс: UTC ± 0



Вы не можете начинать темы
Вы не можете отвечать на сообщения
Вы не можете редактировать свои сообщения
Вы не можете удалять свои сообщения
Вы не можете голосовать в опросах
Вы не можете прикреплять файлы к сообщениям
Вы можете скачивать файлы