Статистика раздачи
Размер:  1,46 GB   |    Зарегистрирован:  3 месяца 9 дней   |    Скачан:  0 раз

Полного источника не было: Никогда

Личеров:  1  [  0 KB/s  ]  
 
   
 
 

nic ®

Пол:
Не указан
Стаж:
3 месяца 11 дней
Сообщений:
153

Сказ о Петре и Февронии
Страна: Россия
Жанр: мультфильм, приключения, семейный
Год выпуска: 2017
Продолжительность: 01:18:04-Субтитры: нет
Оригинальная аудиодорожка: нет-Режиссер: Юрий Рязанов, Юрий Кулаков-В ролях: Иван Охлобыстин, Константин Карасик, Виктор Вержбицкий, Юлия Горохова, Диомид Виноградов, Вадим Медведев (II), Владимир Антоник, Владислав Юдин, Сергей Усков и др.-Описание: XIII век. Злодей захватил власть в Муромском княжестве. Только отважный воин Петр выходит на бой со злодеем и побеждает его. Но ядовитая кровь колдуна отравляет спасителя княжества. Целительница Феврония готова применить свой дар, чтобы спасти Петра. Между молодыми людьми вспыхивает настоящее чистое чувство, которое им предстоит сохранить, несмотря на множество препятствий.-Качество видео: WEB-DLRip
Формат видео: AVI
Видео: 720x400 (1.80:1), 25 fps, XviD build 73 ~2212 kbps avg, 0.31 bit/pixel
Аудио: 48 kHz, AC3 Dolby Digital, 3/2 (L,C,R,l,r) + LFE ch, ~448 kbps-Сэмпл-

MediaInfo

Код:Format : AVI
Format/Info : Audio Video Interleave
File size : 1.46 GiB
Duration : 1 h 18 min
Overall bit rate : 2 670 kb/s
Writing application : VirtualDubMod 1.5.10.3 | www.virtualdub-fr.org || (build 2550/release)
Writing library : VirtualDubMod build 2550/release
Video
ID : 0
Format : MPEG-4 Visual
Format profile : Advanced Simple@L5
Format settings : BVOP1 / Custom Matrix
Format settings, BVOP : 1
Format settings, QPel : No
Format settings, GMC : No warppoints
Format settings, Matrix : Custom
Codec ID : XVID
Codec ID/Hint : XviD
Duration : 1 h 18 min
Bit rate : 2 212 kb/s
Width : 720 pixels
Height : 400 pixels
Display aspect ratio : 16:9
Frame rate : 25.000 FPS
Color space : YUV
Chroma subsampling : 4:2:0
Bit depth : 8 bits
Scan type : Progressive
Compression mode : Lossy
Bits/(Pixel*Frame) : 0.307
Stream size : 1.21 GiB (83%)
Writing library : XviD 73
Audio
ID : 1
Format : AC-3
Format/Info : Audio Coding 3
Codec ID : 2000
Duration : 1 h 18 min
Bit rate mode : Constant
Bit rate : 448 kb/s
Channel(s) : 6 channels
Channel positions : Front: L C R, Side: L R, LFE
Sampling rate : 48.0 kHz
Frame rate : 31.250 FPS (1536 SPF)
Bit depth : 16 bits
Compression mode : Lossy
Stream size : 250 MiB (17%)
Alignment : Split accross interleaves
Interleave, duration : 40 ms (1.00 video frame)
Interleave, preload duratio : 500 ms
Service kind : Complete Main

Скриншоты

[cybertorrent.ru].t4202.torrent 
Торрент: Зарегистрирован [ 2018-02-17 01:52 ] · 0E666420BEEB7EBEC6FBA575B53C69A2FA51A481

Скачать .torrent

Скачать

15 KB

Статус: проверено
Скачан: 0 раз
Размер: 1,46 GB
Профиль [ЛС]
Показать сообщения:    

Текущее время: 26-Май 19:45

Часовой пояс: UTC ± 0



Вы не можете начинать темы
Вы не можете отвечать на сообщения
Вы не можете редактировать свои сообщения
Вы не можете удалять свои сообщения
Вы не можете голосовать в опросах
Вы не можете прикреплять файлы к сообщениям
Вы можете скачивать файлы