Статистика раздачи
Размер:  166 MB   |    Зарегистрирован:  6 месяцев   |    Скачан:  0 раз

Полного источника не было: Никогда

 
   
 
 

kersti ®

Пол:
Не указан
Стаж:
6 месяцев 2 дня
Сообщений:
161

Приключения весёлого скитальца / Przygody wesołego obieżyświata
Страна: Польша
Жанр: мультфильм
Продолжительность: 00:10:07
Год выпуска: 1968
Перевод: профессиональный (одноголосый закадровый)
Режиссёр: Владислав Негребецки / Władysław Nehrebcki
Описание: Весёлый странствующий шут попадает в королевство, где правят жестокий король и злой чародей. Здесь запрещено веселье, а петь нельзя даже птицам...
Качество: DVDRip
Формат: AVI
Видео: 2090 kbps, 720х320 (2.25:1), 25.000 fps, MPEG-4 Visual (XviD)
Аудио: 192 kbps, 44.1 kHz, 2 channels, MPEG Audio (MP3)
Субтитры: отсутствуют

Подробные технические данные

General
Complete name : Przygody wesolego obiezyswiata (1968).avi
Format : AVI
Format/Info : Audio Video Interleave
File size : 166 MiB
Duration : 10mn 7s
Overall bit rate : 2 292 Kbps
Writing application : VirtualDubMod 1.5.10.2 (build 2540/release)
Writing library : VirtualDub build 35491/release
Video
ID : 0
Format : MPEG-4 Visual
Format profile : Advanced Simple@L5
Format settings, BVOP : 2
Format settings, QPel : No
Format settings, GMC : No warppoints
Format settings, Matrix : Default (H.263)
Codec ID : XVID
Codec ID/Hint : XviD
Duration : 10mn 7s
Bit rate : 2 090 Kbps
Width : 720 pixels
Height : 320 pixels
Display aspect ratio : 2.25:1
Frame rate : 25.000 fps
Color space : YUV
Chroma subsampling : 4:2:0
Bit depth : 8 bits
Scan type : Progressive
Compression mode : Lossy
Bits/(Pixel*Frame) : 0.363
Stream size : 151 MiB (91%)
Writing library : XviD 73
Audio
ID : 1
Format : MPEG Audio
Format version : Version 1
Format profile : Layer 3
Codec ID : 55
Codec ID/Hint : MP3
Duration : 10mn 7s
Bit rate mode : Constant
Bit rate : 192 Kbps
Channel(s) : 2 channels
Sampling rate : 44.1 KHz
Compression mode : Lossy
Stream size : 13.9 MiB (8%)
Alignment : Split accross interleaves
Interleave, duration : 40 ms (1.00 video frame)
Interleave, preload duration : 500 ms

Скриншоты

[cybertorrent.ru].t4301.torrent 
Торрент: Зарегистрирован [ 2018-02-17 04:38 ] · E8A6BC14AC95F102CAE49CD40D683D987F3C536A

Скачать .torrent

Скачать

14 KB

Статус: проверено
Скачан: 0 раз
Размер: 166 MB
Профиль [ЛС]
Показать сообщения:    

Текущее время: 17-Авг 22:47

Часовой пояс: UTC ± 0



Вы не можете начинать темы
Вы не можете отвечать на сообщения
Вы не можете редактировать свои сообщения
Вы не можете удалять свои сообщения
Вы не можете голосовать в опросах
Вы не можете прикреплять файлы к сообщениям
Вы можете скачивать файлы
Torrents24.ru открытый BitTorrent Torrents24.pl открытый BitTorrent CyberTorrent.ru открытый BitTorrent BtList.ru рейтинг BitTorrent трекеров Яндекс.Метрика