Статистика раздачи
Размер:  1,46 GB   |    Зарегистрирован:  3 месяца 11 дней   |    Скачан:  0 раз

Полного источника не было: Никогда

 
   
 
 

lopster ®

Пол:
Не указан
Стаж:
3 месяца 11 дней
Сообщений:
612

Крым
«С любимыми не расставайтесь»
- Год выхода: 2017
Выпущено: Россия / Пиманов и партнеры
Жанр: драма, боевик
Продолжительность: 01:36:12-Режиссер:
Алексей Пиманов-В ролях:
Роман Курцын (Саша), Евгения Лапова (Алена), Павел Крайнов (Микола), Павел Трубинер (Алексей), Борис Щербаков (полковник), Елена Котельникова (мама Саши), Геннадий Яковлев (отец Саши), Алексей Комашко (Петр), Никита Зверев (Львовянин), Игорь Буяновер (Грицюк), Илья Домбровский (Богдан)-О фильме:
История о любви, вере и чести, о силе духа и настоящей дружбе на фоне реальных событий крымской весны 2014 года.
Судьба свела их в Крыму близ древнего города Мангуп-Кале. Это была любовь с первого взгляда… В непростые дни исторических перемен они должны сохранить свою жизнь и любовь.-Релиз групп | | КиноПоиск | Сэмпл |-Качество: WEB-DLRip [WEB_DL_1080p]
Формат: AVI
Видео: 720x304 (2.37:1), 25 fps, XviD build 67 ~1774 kbps avg, 0.32 bit/pixel
Аудио: 48 kHz, AC3 Dolby Digital, 3/2 (L,C,R,l,r) + LFE ch, ~384 kbps avg-

Скриншоты

-

MediaInfo

Код:Общее
Полное имя : D:\Krym_2017_WEB-DLRip_iT_by_Dalemake.avi
Формат : AVI
Формат/Информация : Audio Video Interleave
Размер файла : 1,46 Гбайт
Продолжительность : 1 ч. 36 м.
Общий поток : 2168 Кбит/сек
Программа кодирования : VirtualDubMod 1.5.10.3 | www.virtualdub-fr.org || (build 2550/release)
Библиотека кодирования : VirtualDubMod build 2550/release
Видео
Идентификатор : 0
Формат : MPEG-4 Visual
Профиль формата : Advanced Simple@L5
Параметр BVOP формата : 1
Параметр QPel формата : Нет
Параметр GMC формата : Без точки перехода
Параметр матрицы формата : Выборочная
Идентификатор кодека : XVID
Идентификатор кодека/Подсказка : XviD
Продолжительность : 1 ч. 36 м.
Битрейт : 1774 Кбит/сек
Ширина : 720 пикселей
Высота : 304 пикселя
Соотношение сторон : 2,35:1
Частота кадров : 25,000 кадров/сек
Цветовое пространство : YUV
Субдискретизация насыщенности : 4:2:0
Битовая глубина : 8 бит
Тип развёртки : Прогрессивная
Метод сжатия : С потерями
Бит/(Пиксели*Кадры) : 0.324
Размер потока : 1,19 Гбайт (82%)
Библиотека кодирования : XviD 67
Аудио
Идентификатор : 1
Формат : AC-3
Формат/Информация : Audio Coding 3
Расширение режима : CM (complete main)
Параметр Endianness формата : Big
Идентификатор кодека : 2000
Продолжительность : 1 ч. 36 м.
Вид битрейта : Постоянный
Битрейт : 384 Кбит/сек
Каналы : 6 каналов
Расположение каналов : Front: L C R, Side: L R, LFE
Частота : 48,0 КГц
Битовая глубина : 16 бит
Метод сжатия : С потерями
Размер потока : 264 Мбайт (18%)
Выравнивание : Разделение по промежуткам
Продолжительность промежутка : 40 мс. (1,00 видеокадр)
Время предзагрузки промежутка : 500 мс.
-
[cybertorrent.ru].t433.torrent 
Торрент: Зарегистрирован [ 2018-02-15 15:48 ] · 4A0BE96C8DE8DC82B806944566511F24362935D6

Скачать .torrent

Скачать

15 KB

Статус: проверено
Скачан: 0 раз
Размер: 1,46 GB
Профиль [ЛС]
Показать сообщения:    

Текущее время: 26-Май 17:20

Часовой пояс: UTC ± 0



Вы не можете начинать темы
Вы не можете отвечать на сообщения
Вы не можете редактировать свои сообщения
Вы не можете удалять свои сообщения
Вы не можете голосовать в опросах
Вы не можете прикреплять файлы к сообщениям
Вы можете скачивать файлы