Статистика раздачи
Размер:  1,75 GB   |    Зарегистрирован:  3 месяца 4 дня   |    Скачан:  0 раз

Полного источника не было: Никогда

 
   
 
 

Domino ®

Пол:
Не указан
Стаж:
3 месяца 6 дней
Сообщений:
214

BBC.Искусство Франции (1-3 серии из 3-х) / Art Of France
Дата/Год выпуска: 2017
Страна: Великобритания
Жанр: документальный, искусство, живопись
Продолжительность: 3 серии по ~ 50 мин.
Перевод: Профессиональный (двухголосый закадровый)
Доп. инфо о переводе: SDI-Media
Русские субтитры: нет
Режиссер: Тим Кирби / Tim Kirby
Телеканал: 365 дней
Описание: Британский искусствовед Эндрю Грэм-Диксон продолжает серию документальных фильмов, рассказывающих о культурном наследии разных стран мира. В новом проекте вы узнаете, как развивалось искусство Франции: от времён Революции XVIII века и империи Бонапарта к искусству модерн
Сэмпл: http://multi-up.com/1182800
качество: DVBRip
формат: AVI
Видео: Xvid 704x416 25fps 1499kbps
Аудио: MP3 48000Hz stereo 128kbps

Список выпусков/серий

1 часть. Меняй - не меняй / Plus Ca Change. Эндрю Грэхэм - Диксон открывает новейший цикл драматической историей о французском искусстве, историей о самых могущественных королях, когда-либо правивших в Европе и обладавших роскошными дворцами и хранящих поразительные произведения искусства. Он также приоткроет завесу тайны над тем, как искусство родилось из борьбы между традицией и революцией, правителей и людей, не желавших,чтобы ими правили. /
Andrew Graham-Dixon opens his latest series with the dramatic story of French art, a story of the most powerful kings ever to rule in Europe with their glittering palaces and astounding art to go in them. He also reveals how art emerged from a struggle between tradition and revolution, between rulers and a people who didn't always want to be ruled.
2 часть. И прольется кровь / There Will be Blood. Эндрю изучает, каким образом изменилось искусство во Франции после Французской революции, открывшей новый , захватывающий, мир. От казни короля Людовика XVI и возвышения Наполеона Бонапарта - фигуры, которая одновременно отталкивала и вдохновляла художников своего времени - до появления романтизма и искусства соблазнения, секса и высокой драмы, Эндрю изучает и художников той эпохи, в том числе Жака-Луи Давида, чье искусство родилось на баррикадах и на улицах, - а также работы Делакруа, Энгра и трагического, но гениального Теодора Жерико. /
Andrew explores how art in France took a dramatic turn following the French Revolution that ushered in a bold new world. From the execution of King Louis XVI and the rise of Napoleon Bonaparte - a figure who simultaneously repelled and inspired artists of his time - through to the rise of Romanticism and an art of seduction, sex and high drama, Andrew explores artists including Jacques-Louis David - whose art appeared on the barricades and in the streets - as well as the work of Delacroix, Ingres and the tragic but brilliant Theodore Gericault.
3 часть. Таков современный мир / This is the Modern World. / Заключительный эпизод начинается с живописи импрессионистов. Эндрю погружает нас в наиболее захватывающий и бурный в творческом плане период в истории искусства Франции, стремительно взметнувшейся ввысь , когда молодые и дерзкие художники, движимые новыми идеями, искали вдохновение в забегаловках, борделях и кабаре Парижа...Моне, Дега и подобные им лихорадочно спорили о роли искусства в современном мире, проторяя дорогу новым идеям своего времени - от кубизма - к фовизму, от сюрреализма - к экзистенциализму, и от концептуализма - к абстрактному экспрессионизму.
In the final episode, Andrew begins with the Impressionists. He plunges into one of the most wildly creative periods in the history of art, when France was changing at a rapid pace and angry young artists would re-invent how to paint, finding their muses in the bars, brothels and cabarets of Belle Epoque Paris and turning the world of art on its head. Monet, Degas and friends launched a febrile conversation about the role of painting in the modern world that would pave the way for just about every modern art movement of note, from the Cubists to the Fauves, from the Surrealists to the Existentialists and from conceptual artists to the Abstract Expressionists.

MediaInfo

General
Complete name : F:\Живопись\Искусство Франции AVI\1. Меняй - не меняй.avi
Format : AVI
Format/Info : Audio Video Interleave
File size : 598 MiB
Duration : 50mn 55s
Overall bit rate : 1 641 Kbps
Video
ID : 0
Format : MPEG-4 Visual
Format profile : Advanced Simple@L5
Format settings, BVOP : 2
Format settings, QPel : No
Format settings, GMC : No warppoints
Format settings, Matrix : Default (H.263)
Codec ID : XVID
Codec ID/Hint : XviD
Duration : 50mn 55s
Bit rate : 1 500 Kbps
Width : 704 pixels
Height : 416 pixels
Display aspect ratio : 1.692
Frame rate : 25.000 fps
Color space : YUV
Chroma subsampling : 4:2:0
Bit depth : 8 bits
Scan type : Progressive
Compression mode : Lossy
Bits/(Pixel*Frame) : 0.205
Stream size : 546 MiB (91%)
Writing library : XviD 64
Audio
ID : 1
Format : MPEG Audio
Format version : Version 1
Format profile : Layer 3
Codec ID : 55
Codec ID/Hint : MP3
Duration : 50mn 54s
Source duration : 50mn 54s
Bit rate mode : Constant
Bit rate : 128 Kbps
Channel(s) : 2 channels
Sampling rate : 48.0 KHz
Compression mode : Lossy
Stream size : 46.6 MiB (8%)
Alignment : Split accross interleaves
Interleave, duration : 24 ms (0.60 video frame)
Мои раздачи: архитектура, искусство, недвижимость http://cybertorrent.ru/tracker.php?rid=8171303
[cybertorrent.ru].t4392.torrent 
Торрент: Зарегистрирован [ 2018-02-17 04:38 ] · CEDDD0FDC15C0C2C9944B2DA688CE92598E99A2E

Скачать .torrent

Скачать

18 KB

Статус: проверено
Скачан: 0 раз
Размер: 1,75 GB
Профиль [ЛС]
Показать сообщения:    

Текущее время: 21-Май 20:12

Часовой пояс: UTC ± 0



Вы не можете начинать темы
Вы не можете отвечать на сообщения
Вы не можете редактировать свои сообщения
Вы не можете удалять свои сообщения
Вы не можете голосовать в опросах
Вы не можете прикреплять файлы к сообщениям
Вы можете скачивать файлы