Статистика раздачи
Размер:  2,05 GB   |    Зарегистрирован:  3 месяца 10 дней   |    Скачан:  0 раз

Полного источника не было: Никогда

 
   
 
 

Симка ®

Пол:
Не указан
Стаж:
3 месяца 12 дней
Сообщений:
376

Путешествие в прошлое / Fleet of Time / Back in Time / Cong cong na nian
Страна: Китай
Жанр: драма, романтика
Год выпуска: 2014
Продолжительность: 01:54:26
Перевод: Любительский (двухголосый закадровый) HighHopes
Субтитры: китайские и английские (хардсаб)
Режиссер: Чжан Ибай / Zhang Yibai
В ролях:
Эдди Пэн / Eddie Peng
Ни Ни / Ni Ni
Чжэн Кай / Zheng Kai
Вижен Вэй / Vision Wei
Цзы-Сюань Чжан / Zi-Xuan Zhang
Майкл Чэнь / Michael Chen
Сиа Лю / Cya Liu
Цао Вэйюй / Cao Weiyu
Чжан Нинцзян / Zhang Ningjiang
Описание: На что вы способны ради любимой? Чэнь Сюнь, например, завалил экзамены, чтобы попасть в один университет со своей девушкой. Однако, они недолго были вместе, разное окружение и интересы привели к недопониманию и расставанию. Через 15 лет, на свадьбе друга Чэнь Сюнь вспоминает о своей первой любви и пытается проанализировать свои тогдашние действия. Так и начинается его путешествие в прошлое.
Доп. информация:
Голоса - Елена Егорова и Валерий Феодосов [группа Студия HighHopes | перевод и озвучивание]
Перевод - FSG MAGICIANS
Сэмпл: https://yadi.sk/i/jJKwHCH33RN9CW
Качество видео: HDRip
Формат видео: MP4
Видео: AVC, 1280x720 (16:9), 25.000 fps, 2400 Kbps, 0.104 bit/pixel
Аудио: AAC, 44.1 KHz, 2 ch, 192 Kbps

MediaInfo

Общее
Полное имя : F:\Азиатские фильмы (2)\Китай\FoT_movie_HighHopes.mp4
Формат : MPEG-4
Профиль формата : Base Media
Идентификатор кодека : isom (isom)
Размер файла : 2,05 Гбайт
Продолжительность : 1 ч. 54 м.
Режим общего битрейта : Переменный
Общий поток : 2560 Кбит/сек
Дата кодирования : UTC 2018-01-09 14:03:57
Дата пометки : UTC 2018-01-09 14:03:57
Программа кодирования : Yamb 2.1.0.0 []http://yamb.unite-video.com]
Видео
Идентификатор : 2
Формат : AVC
Формат/Информация : Advanced Video Codec
Профиль формата : High@L3
Параметр CABAC формата : Нет
Параметр RefFrames формата : 1 кадр
Идентификатор кодека : avc1
Идентификатор кодека/Информация : Advanced Video Coding
Продолжительность : 1 ч. 54 м.
Битрейт : 2400 Кбит/сек
Максимальный битрейт : 20,8 Мбит/сек
Ширина : 1280 пикселей
Высота : 720 пикселей
Соотношение сторон : 16:9
Режим частоты кадров : Постоянный
Частота кадров : 25,000 кадров/сек
Цветовое пространство : YUV
Субдискретизация насыщенности : 4:2:0
Битовая глубина : 8 бит
Тип развёртки : Прогрессивная
Бит/(Пиксели*Кадры) : 0.104
Размер потока : 1,89 Гбайт (92%)
Библиотека кодирования : x264 core 148 r2665 a01e339
Настройки программы : cabac=0 / ref=1 / deblock=1:0:0 / analyse=0x3:0x113 / me=hex / subme=7 / psy=1 / psy_rd=1.00:0.00 / mixed_ref=0 / me_range=16 / chroma_me=1 / trellis=1 / 8x8dct=1 / cqm=0 / deadzone=21,11 / fast_pskip=1 / chroma_qp_offset=-2 / threads=6 / lookahead_threads=1 / sliced_threads=0 / nr=0 / decimate=1 / interlaced=0 / bluray_compat=0 / constrained_intra=0 / bframes=0 / weightp=2 / keyint=250 / keyint_min=25 / scenecut=40 / intra_refresh=0 / rc_lookahead=40 / rc=abr / mbtree=1 / bitrate=2400 / ratetol=1.0 / qcomp=0.60 / qpmin=0 / qpmax=69 / qpstep=4 / ip_ratio=1.40 / aq=1:1.00
Дата кодирования : UTC 2016-11-09 20:25:16
Дата пометки : UTC 2018-01-09 14:05:00
Аудио
Идентификатор : 1
Формат : AAC
Формат/Информация : Advanced Audio Codec
Профиль формата : LC
Идентификатор кодека : 40
Продолжительность : 1 ч. 54 м.
Вид битрейта : Переменный
Битрейт : 192 Кбит/сек
Максимальный битрейт : 228 Кбит/сек
Каналы : 2 канала
Расположение каналов : Front: L R
Частота : 44,1 КГц
Частота кадров : 43,066 кадра/сек (1024 SPF)
Метод сжатия : С потерями
Размер потока : 159 Мбайт (8%)
Дата кодирования : UTC 2018-01-09 14:03:57
Дата пометки : UTC 2018-01-09 14:05:00

Скриншот c названием фильма

Скриншоты

[cybertorrent.ru].t4394.torrent 
Торрент: Зарегистрирован [ 2018-02-17 04:38 ] · 7C698913A89DB6458F93EF6BAC3C05234A340998

Скачать .torrent

Скачать

11 KB

Статус: проверено
Скачан: 0 раз
Размер: 2,05 GB
Профиль [ЛС]
Показать сообщения:    

Текущее время: 27-Май 19:54

Часовой пояс: UTC ± 0



Вы не можете начинать темы
Вы не можете отвечать на сообщения
Вы не можете редактировать свои сообщения
Вы не можете удалять свои сообщения
Вы не можете голосовать в опросах
Вы не можете прикреплять файлы к сообщениям
Вы можете скачивать файлы