Статистика раздачи
Размер:  2,2 GB   |    Зарегистрирован:  3 месяца 10 дней   |    Скачан:  0 раз

Полного источника не было: Никогда

Личеров:  1  [  0 KB/s  ]  
 
   
 
 

Gomer ®

Пол:
Не указан
Стаж:
3 месяца 12 дней
Сообщений:
471

Башар аль-Асад: властвовать или погибнуть
Bachar El-Assad, le pouvoir ou la mort- Дата/Год выпуска: 2017
Страна: Франция
Жанр: документальный, общественно-политическая передача
Продолжительность: 01:34:47
Перевод: Субтитры
Доп. инфо о переводе: русский перевод ECLAIR
Русские субтитры: естьФормат субтитров: prerendered (IDX+SUB), softsub (SRT)
Доп. информация о субтитрах: русские, немецкие, нидерландские, румынские - (IDX+SUB); английские, французские - (SRT)
Оригинальная аудиодорожка: французский
Режиссер: Кристоф Видманн / Christophe Widemann
Телеканал: TV5MONDE Europe
Описание: Башар Аль-Асад получил Сирию в наследство от своего отца, Хафеза аль-Асада, создавшего эту железную диктатуру, в которой страна пребывает уже 50 лет. Как скромный доктор Башар, который давно очаровал Запад, пообещав развить демократию в своей стране, стал диктатором Асадом, который борется со своими людьми в смертельной гражданской войне? Какую роль играет Франция? Приближенные и бывшие руководители режима говорят о восхождении человека, который не должен был стать президентом и рассказывают о практически мафиозной системе...
Доп. информация: Hot Bird (13.0°E) DVB-S
качество: DVB
формат: MKV
Видео: MPEG Video 2, 720x576@1024x576 (16:9), 25 fps, ~3069 kbps avg, 0.296 bit/pixel
Аудио: MPEG Audio 2, 2 ch, 48 kHz, ~192.00 kbps avg - французский

MediaInfo

General
Unique ID : 111895936499215897994097356855263421005 (0x542E5F9C1E0017F6FEEE5C16B654E24D)
Complete name : [apreder]Bachar_El-Assad_le_pouvoir_ou_la_mort(2017)DVB.mkv
Format : Matroska
Format version : Version 2
File size : 2.20 GiB
Duration : 1 h 34 min
Overall bit rate mode : Variable
Overall bit rate : 3 327 kb/s
Movie name : Bachar El-Assad, le pouvoir ou la mort
Released date : 2017-00-00
Encoded date : UTC 2018-01-12 17:05:46
Writing application : mkvmerge v19.0.0 ('Brave Captain') 64-bit
Writing library : libebml v1.3.5 + libmatroska v1.4.8
Cover : Yes
Attachments : cover.jpg / small_cover.jpg
ACTOR : Laurent Delahousse
DIRECTOR : Christophe Widemann
GENRE : Documentary
KEYWORDS : rutracker.org
LAW_RATING : 12+
Video
ID : 1
Format : MPEG Video
Format version : Version 2
Format profile : Main@Main
Format settings : CustomMatrix / BVOP
Format settings, BVOP : Yes
Format settings, Matrix : Custom
Format settings, GOP : M=4, N=12
Format settings, picture structure : Frame
Codec ID : V_MPEG2
Codec ID/Info : MPEG 1 or 2 Video
Duration : 1 h 34 min
Bit rate mode : Variable
Bit rate : 3 069 kb/s
Width : 720 pixels
Height : 576 pixels
Display aspect ratio : 16:9
Frame rate mode : Constant
Frame rate : 25.000 FPS
Standard : PAL
Color space : YUV
Chroma subsampling : 4:2:0
Bit depth : 8 bits
Scan type : Interlaced
Scan order : Top Field First
Compression mode : Lossy
Bits/(Pixel*Frame) : 0.296
Time code of first frame : 00:00:00:00
Time code source : Group of pictures header
GOP, Open/Closed : Open
GOP, Open/Closed of first frame : Closed
Stream size : 2.03 GiB (92%)
Default : Yes
Forced : No
Audio
ID : 2
Format : MPEG Audio
Format version : Version 1
Format profile : Layer 2
Format settings : Joint stereo / Intensity Stereo + MS Stereo
Codec ID : A_MPEG/L2
Codec ID/Hint : MP2
Duration : 1 h 34 min
Bit rate mode : Constant
Bit rate : 192 kb/s
Channel(s) : 2 channels
Sampling rate : 48.0 kHz
Compression mode : Lossy
Stream size : 130 MiB (6%)
Language : French
Default : Yes
Forced : No
Text #1
ID : 3
Format : VobSub
Codec ID : S_VOBSUB
Codec ID/Info : Picture based subtitle format used on DVDs
Language : Russian
Default : No
Forced : No
Text #2
ID : 4
Format : UTF-8
Codec ID : S_TEXT/UTF8
Codec ID/Info : UTF-8 Plain Text
Language : English
Default : No
Forced : No
Text #3
ID : 5
Format : UTF-8
Codec ID : S_TEXT/UTF8
Codec ID/Info : UTF-8 Plain Text
Language : French
Default : No
Forced : No
Text #4
ID : 6
Format : VobSub
Codec ID : S_VOBSUB
Codec ID/Info : Picture based subtitle format used on DVDs
Language : German
Default : No
Forced : No
Text #5
ID : 7
Format : VobSub
Codec ID : S_VOBSUB
Codec ID/Info : Picture based subtitle format used on DVDs
Language : Dutch
Default : No
Forced : No
Text #6
ID : 8
Format : VobSub
Codec ID : S_VOBSUB
Codec ID/Info : Picture based subtitle format used on DVDs
Language : Romanian
Default : No
Forced : No

Скриншоты


Резервные скриншоты


- [4'041]
[cybertorrent.ru].t4412.torrent 
Торрент: Зарегистрирован [ 2018-02-17 04:38 ] · 14F426E14A8BCD96D8FDF3A867FD775B11E4DCB3

Скачать .torrent

Скачать

23 KB

Статус: проверено
Скачан: 0 раз
Размер: 2,2 GB
Профиль [ЛС]
Показать сообщения:    

Текущее время: 27-Май 21:23

Часовой пояс: UTC ± 0



Вы не можете начинать темы
Вы не можете отвечать на сообщения
Вы не можете редактировать свои сообщения
Вы не можете удалять свои сообщения
Вы не можете голосовать в опросах
Вы не можете прикреплять файлы к сообщениям
Вы можете скачивать файлы