Статистика раздачи
Размер:  9,67 GB   |    Зарегистрирован:  3 месяца 9 дней   |    Скачан:  0 раз

Полного источника не было: Никогда

 
   
 
 

kex ®

Пол:
Не указан
Стаж:
3 месяца 11 дней
Сообщений:
324

-Древние пришельцы | Ancient Aliens-- Год выпуска: 2016
Выпущено: США, Prometheus Entertainment, A&E Television Networks, LLC.
Режиссер: Кевин Бёрнс / Kevin Burns
Жанр: Документальный, научно-популярный
Продолжительность: ~00:41:00
Перевод: Профессиональный (многоголосый закадровый) | H2
Описание: Возможно ли, что разумные формы жизни посетили Землю тысячи лет назад, принеся с собой технологии кардинально повлиявшие на ход истории и развития человечества? Теория "древних пришельцев", опубликованная в 1968 году в бестселлере Эриха фон Деникена "Колесницы богов", пошатнула представления людей об общеизвестном прогрессе человечества. Древние пещерные рисунки странных существ, остатки взлетно-посадочных полос в Перу, индийские тексты, описывающие "летающие машины богов"... вот лишь некоторые необычные археологические артефакты на которые ссылается Деникен в качестве доказательств того, что "древние астронавты" были хорошо известны нашим предкам... В сериале рассказывается о разнообразных свидетельствах, что Землю посещали инопланетяне. Эта история охватывает 75 миллионов лет: от эры динозавров и Древнего Египта до странных небесных явлений в наши дни.
Качество: SATRemux-AVC
Формат: MKV
Видео: AVC, 720x576@1024x576 (16:9), 25 fps, ~1800 kbps
Аудио: Русский (MP2, 48 kHz, 2 ch, 192 kbps); Английский (MP2, 48 kHz, 2 ch, 192 kbps)
Сэмпл

Релиз

Запись: Wilmots

Список выпусков/серий

1. Пирамиды Антарктиды / Pyramids of Antarctica - В этой серии рассказывается о предположении, что в далеком прошлом, когда Антарктида не была скрыта под снегом и льдом, ее колонизировали инопланетяне.
2. Пункт назначения - Марс / Destination Mars - По прогнозам ученых, человек побывает на Марсе в течение ближайших 20 лет. Но, возможно, до нас там уже побывали инопланетяне?
3. Следующие люди / The Next Humans - Сторонники теории палеоконтакта полагают, что человечество создано инопланетными пришельцами, которые ориентировали нас на технический прогресс.
4. Новые доказательства / The New Evidence - В последние годы были обнаружены новые факты, подтверждающие теорию, что в далеком прошлом Землю посещали инопланетяне. Возможно, эти доказательства развеют последние сомнения скептиков, и теория палеоконтакта окончательно подтвердится?
5. Провидцы / The Visionaries - Сторонники теории палеоконтакта полагают, что техническим прогрессом человечества втайне руководили инопланетяне.
6. Расшифровка Космического яйца / Decoding the Cosmic Egg - В этой серии рассказывается о довольно спорной теории "космического яйца", согласно которой Вселенная вылупилась из некоего яйца. Подобные идеи встречаются в мифах о сотворении мира у многих народов.
7. Хранители мудрости / The Wisdom Keepers - По мнению сторонников теории палеоконтакта, древние мифы однозначно указывают на то, что жизнь на Земле была создана пришельцами с других планет.
8. Таинственная девятка / The Mysterious Nine - Можно ли всерьез рассматривать теорию "Девятки", объединения инопланетных существ, которые наблюдают за человечеством и влияют на ход его развития? Некоторые эксперты считают, что да.
9. Скрытая империя / The Hidden Empire - Сторонники теории палеоконтакта существуют повсюду на Земле. И самые веские доказательства в пользу этой теории находятся в одном из самых труднодоступных мест на планете - в Китае.
10. Прототипы / The Prototypes - Археологические находки позволяют предположить, какой была жизнь на Земле в далеком прошлом. Но как получилось, что люди появились в разных уголках планеты независимо друг от друга. Возможно, человечество — результат инопланетных экспериментов?
11. Космическая станция Луна / Space Station Moon - А вдруг Луна - не природное небесное тело, а искусственно созданный объект? На фотографиях НАСА на Луне видны неопознанные "постройки". А под поверхностью Луны, возможно, скрывается еще больше тайн.
12. Россия - Совершенно секретно / Russia's Secret Files - В России родился «космизм», философия, утверждающая, что человеческая цивилизация происходит из космоса, и люди когда-нибудь вернутся в космос. Однако после революции 1917 года все контакты России с пришельцами были окутаны плотной завесой тайны.
13. Розуэлльский инцидент / Beyond Roswell - Долгое время военные США утверждали, что Розуэлльский инцидент в 1947 году был не более чем падением метеозонда, но в архивах ФБР, открытых в 2011, есть упоминание о трех «летающих тарелках». Возможно, речь идет о космических кораблях пришельцев?
14. Вернувшиеся / The Returned - Возможно ли, что инопланетяне действительно прибывают на Землю, чтобы захватывать и исследовать людей? Если да, то каков их план - присоединиться к нам или заменить нас? Возможно конечный результат будет определяться тем, насколько мы готовы радушно принять их, и насколько мы в состоянии хорошо относиться друг к другу. Ясно одно, на чаше весов само существование человечества.
15. Шива-разрушитель / Shiva the Destroyer - Является ли Шива, не более чем мифическим индуистским Богом, вручившим древним людям способ описания невероятного катаклизма или он нечто большее? Возможно ответ лежит совсем не в образах, вырезанных на стенах древних храмов и не в словах священных текстов, а в удивительной по мощи энергии и растущей способности человечества обуздать эту энергию, чтобы совершить наше путешествие назад - к звёздам.

MediaInfo

General
Unique ID : 195562271183399049656366889932592585313 (0x931FEC645D71569836BED5B53BB91A61)
Complete name : 05 - Провидцы (The Visionaries).mkv
Format : Matroska
Format version : Version 4 / Version 2
File size : 669 MiB
Duration : 39 min 34 s
Overall bit rate : 2 364 kb/s
Encoded date : UTC 2018-01-13 19:14:47
Writing application : mkvmerge v19.0.0 ('Brave Captain') 64-bit
Writing library : libebml v1.3.5 + libmatroska v1.4.8
Video
ID : 1
Format : AVC
Format/Info : Advanced Video Codec
Format profile : High@L3
Format settings : CABAC / 4 Ref Frames
Format settings, CABAC : Yes
Format settings, ReFrames : 4 frames
Codec ID : V_MPEG4/ISO/AVC
Duration : 39 min 34 s
Bit rate : 1 972 kb/s
Width : 720 pixels
Height : 576 pixels
Display aspect ratio : 16:9
Original display aspect ratio : 16:9
Frame rate mode : Variable
Frame rate : 49.891 FPS
Original frame rate : 25.000 FPS
Standard : Component
Color space : YUV
Chroma subsampling : 4:2:0
Bit depth : 8 bits
Scan type : Interlaced
Scan type, store method : Separated fields
Scan order : Top Field First
Bits/(Pixel*Frame) : 0.095
Stream size : 558 MiB (83%)
Default : Yes
Forced : No
Color range : Limited
Color primaries : BT.601 PAL
Transfer characteristics : BT.470 System B, BT.470 System G
Matrix coefficients : BT.470 System B, BT.470 System G
Audio #1
ID : 2
Format : MPEG Audio
Format version : Version 1
Format profile : Layer 2
Codec ID : A_MPEG/L2
Codec ID/Hint : MP2
Duration : 39 min 34 s
Bit rate mode : Constant
Bit rate : 192 kb/s
Channel(s) : 2 channels
Sampling rate : 48.0 kHz
Frame rate : 41.665 FPS (1152 SPF)
Compression mode : Lossy
Delay relative to video : -17 ms
Stream size : 54.3 MiB (8%)
Language : Russian
Default : Yes
Forced : No
Audio #2
ID : 3
Format : MPEG Audio
Format version : Version 1
Format profile : Layer 2
Codec ID : A_MPEG/L2
Codec ID/Hint : MP2
Duration : 39 min 34 s
Bit rate mode : Constant
Bit rate : 192 kb/s
Channel(s) : 2 channels
Sampling rate : 48.0 kHz
Frame rate : 41.665 FPS (1152 SPF)
Compression mode : Lossy
Delay relative to video : -17 ms
Stream size : 54.3 MiB (8%)
Language : English
Default : No
Forced : No

Скриншоты

[cybertorrent.ru].t4448.torrent 
Торрент: Зарегистрирован [ 2018-02-17 04:38 ] · 0387533856F2D2C13A304FB85DF2BE2D4657CB32

Скачать .torrent

Скачать

26 KB

Статус: проверено
Скачан: 0 раз
Размер: 9,67 GB
Профиль [ЛС]
Показать сообщения:    

Текущее время: 26-Май 17:11

Часовой пояс: UTC ± 0



Вы не можете начинать темы
Вы не можете отвечать на сообщения
Вы не можете редактировать свои сообщения
Вы не можете удалять свои сообщения
Вы не можете голосовать в опросах
Вы не можете прикреплять файлы к сообщениям
Вы можете скачивать файлы