Статистика раздачи
Размер:  7,76 GB   |    Зарегистрирован:  3 месяца 8 дней   |    Скачан:  0 раз

Полного источника не было: Никогда

 
   
 
 

xenom ®

Пол:
Не указан
Стаж:
3 месяца 11 дней
Сообщений:
305

Воронины / Сезон 10 / Серии 1-25 из 25 (186-210 из 210)
Год выпуска: 2011
Производство: Россия, СТС
Жанр: комедия, семейное кино
Продолжительность: 25 серий по ~ 24 минуты
Субтитры: нет
Режиссёр: Александр Жигалкин
В ролях: Георгий (Егор) Дронов, Екатерина Волкова (II), Станислав Дужников, Борис Клюев, Анна Фроловцева
Описание: В обычном доме в трехкомнатной квартире живет молодая семья: Костя, его жена Вера и их дети – пятилетняя дочка и два маленьких сына-близнеца. Костя – известный спортивный журналист. Жена Вера любит его и ведет все хозяйство, а дети не доставляют много хлопот. Гораздо больше хлопот им приносят родители Кости, которые живут напротив на той же лестничной площадке… Воронины – это история о том, что иногда родственники бывают слишком близкими.
Релиз: Shel и
Все раздачи сериала
Качество: IPTVRip
Формат: AVI
Видео кодек: XviD
Аудио кодек: MP3
Видео: 704x528 (1.33:1), 25 fps, XviD MPEG-4 ~1735 kbps avg, 0.19 bit/pixel
Аудио: 48 kHz, MPEG Layer 3, 2 ch, ~128.00 kbps avg

MI

Общее
Полное имя : F:\Voroniny.2010.XviD.IPTVRip.by.Shel\Voroniny.(Season.10).2011.XviD.IPTVRip.by.Shel\Voroniny.(186).2011.XviD.IPTVRip.by.Shel.avi
Формат : AVI
Формат/Информация : Audio Video Interleave
Размер файла : 319 Мбайт
Продолжительность : 23 м.
Общий поток : 1873 Кбит/сек
Библиотека кодирования : VirtualDub build 32842/release
Видео
Идентификатор : 0
Формат : MPEG-4 Visual
Профиль формата : Advanced Simple@L5
Параметр BVOP формата : 2
Параметр QPel формата : Нет
Параметр GMC формата : Без точки перехода
Параметр матрицы формата : Default (MPEG)
Идентификатор кодека : XVID
Идентификатор кодека/Подсказка : XviD
Продолжительность : 23 м.
Битрейт : 1735 Кбит/сек
Ширина : 704 пикс.
Высота : 528 пикс.
Соотношение сторон : 4:3
Частота кадров : 25,000 кадр/сек
Цветовое пространство : YUV
Подвыборка цветности : 4:2:0
Битовая глубина : 8 бит
Тип развёртки : Прогрессивная
Метод сжатия : С потерями
Бит/(Пиксели*Кадры) : 0.187
Размер потока : 295 Мбайт (93%)
Библиотека кодирования : XviD 64
Аудио
Идентификатор : 1
Формат : MPEG Audio
Версия формата : Version 1
Профиль формата : Layer 3
Режим : Joint stereo
Расширение режима : MS Stereo
Идентификатор кодека : 55
Идентификатор кодека/Подсказка : MP3
Продолжительность : 23 м.
Вид битрейта : Постоянный
Битрейт : 128 Кбит/сек
Канал(ы) : 2 канала(ов)
Частота : 48,0 КГц
Метод сжатия : С потерями
Размер потока : 21,8 Мбайт (7%)
Выравнивание : Разделение по промежуткам
Продолжительность промежутка : 40 мс. (1,00 видеокадр)
Время предзагрузки промежутка : 500 ms

Скриншоты

Как закачать отдельный файл из торрента или докачать ранее пропущенные файлы торрента.
[cybertorrent.ru].t7729.torrent 
Торрент: Зарегистрирован [ 2018-02-18 23:20 ] · 03E5B056DAA213C493526B36DD486E1963637E70

Скачать .torrent

Скачать

41 KB

Статус: проверено
Скачан: 0 раз
Размер: 7,76 GB
Профиль [ЛС]
Показать сообщения:    

Текущее время: 27-Май 19:46

Часовой пояс: UTC ± 0



Вы не можете начинать темы
Вы не можете отвечать на сообщения
Вы не можете редактировать свои сообщения
Вы не можете удалять свои сообщения
Вы не можете голосовать в опросах
Вы не можете прикреплять файлы к сообщениям
Вы можете скачивать файлы