Статистика раздачи
Размер:  31,72 GB   |    Зарегистрирован:  3 месяца 8 дней   |    Скачан:  0 раз

Полного источника не было: Никогда

Личеров:  1  [  0 KB/s  ]  
 
   
 
 

Jana ®

Пол:
Не указан
Стаж:
3 месяца 11 дней
Сообщений:
553

-Менталист / The Mentalist- Информация о сериале
Год выпуска: 2011
Страна: США
Жанр: драма, детектив
Продолжительность: 00:42:00-Перевод: оригинал
Русские субтитры: есть
Субтитры: английские*, русские (Вшитые с возможностью переключать)
-Режиссёр: Чарльз Бисон, Эрик Ланёвилль, Джон Шоуолтер, Крис Лонг-В ролях: Саймон Бейкер, Робин Танни, Аманда Риджетти, Тим Кенг, Овайн Йомен, и другие-Описание:
Патрик Джейн — детектив и независимый консультант из Калифорнийского Бюро Расследований (КБР), он использует свои отточенные, как лезвие, навыки наблюдения для раскрытия тяжких преступлений. В самом Бюро Джейн известен за частые нарушения протокола, а также за его звездное прошлое: он работал медиумом, однако теперь сам признает, что симулировал паранормальные способности. Роль Джейна в раскрытии целой серии загадочных преступлений высоко ценится коллегами. Но суровый старший агент Тереза Лисбон против того, чтоб Джейн работал с ее отрядом, и то вынужденно признает его успехи, то критикует его за театральность, нарциссизм и отсутствие границ.
-Ссылка на предыдущие и альтернативные раздачи-Файл
Качество: iTunes WEB-DL 720p
Формат: MKV
Видео кодек: H.264
Аудио кодек: AC3
Видео: 1276x720, 23.98fps, 4025 Kbps, 0.183 bit/pixel
Аудио: Dolby Digital 5.1 / 48 kHz / 384 kbps
Субтитры: Русские (SRT) , Русские (ASS) (цветные), English (SRT) *
-* для 3 и 4,7-24 серии.-

MI

Код:Общее
Формат : Matroska
Размер файла : 1,34 Гбайт
Продолжительность : 42 м.
Общий поток : 4499 Кбит/сек
Дата кодирования : UTC 2011-09-25 20:18:13
Программа кодирования : mkvmerge v4.9.1 ('Ich will') сборка от Jul 11 2011 23:53:15
Библиотека кодирования : libebml v1.2.1 + libmatroska v1.1.1
Обложка : Yes
Видео
Идентификатор : 1
Формат : AVC
Формат/Информация : Advanced Video Codec
Профиль формата : High@L3.1
Параметр CABAC формата : Нет
Параметр ReFrames формата : 2 кадры
Параметры GOP формата : M=2, N=32
Идентификатор кодека : V_MPEG4/ISO/AVC
Продолжительность : 42 м.
Битрейт : 4025 Кбит/сек
Ширина : 1276 пикс.
Высота : 720 пикс.
Соотношение сторон : 16:9
Частота кадров : 23,976 кадр/сек
Цветовое пространство : YUV
Подвыборка цветности : 4:2:0
Битовая глубина : 8 бит
Тип развёртки : Прогрессивная
Бит/(Пиксели*Кадры) : 0.183
Размер потока : 1,20 Гбайт (89%)
Язык : English
Основные цвета : BT.709-5, BT.1361, IEC 61966-2-4, SMPTE RP177
Характеристики трансфера : BT.709-5, BT.1361
Коэффициенты матрицы : BT.709-5, BT.1361, IEC 61966-2-4 709, SMPTE RP177
Аудио
Идентификатор : 2
Формат : AC-3
Формат/Информация : Audio Coding 3
Расширение режима : CM (complete main)
Идентификатор кодека : A_AC3
Продолжительность : 42 м.
Вид битрейта : Постоянный
Битрейт : 384 Кбит/сек
Канал(ы) : 6 канала(ов)
Расположение каналов : Front: L C R, Side: L R, LFE
Частота : 48,0 КГц
Битовая глубина : 16 бит
Метод сжатия : С потерями
Размер потока : 117 Мбайт (9%)
Язык : English
Текст #1
Идентификатор : 3
Формат : UTF-8
Идентификатор кодека : S_TEXT/UTF8
Идентификатор кодека/Информация : UTF-8 Plain Text
Заголовок : Russian (SRT)
Язык : Russian
Текст #2
Идентификатор : 4
Формат : ASS
Идентификатор кодека : S_TEXT/ASS
Идентификатор кодека/Информация : Advanced Sub Station Alpha
Метод сжатия : Без потерь
Заголовок : Russian (ASS)
Язык : Russian
-

Список серий вышедших по TV в Америке

1. Scarlet Ribbons - Алые ленты.
2. Little Red Book - Маленькая красная книжка.
3. Pretty Red Balloon - Красный воздушный шарик.
4. Ring around the Rosie - Кровавый хоровод.
5. Blood and Sand - Кровь и песок.
6. Where in the World is Carmine O'Brien? - Да где же Кармин О'Брайен?
7. Blinking Red Light - Красный мигающий огонёк.
8. Pink Tops - Розовые топики.
9. The Redshirt - Красная футболка.
10. Fugue in Red - Фуга в красных тонах.
11. Always bet on red - Всегда ставь на красное.
12. My Bloody Valentine - Мой кровавый Валентин.
13. Red Is The New Black - Красный снова в моде.
14. At First Blush - С первого взгляда.
15. War Of The Roses - Война роз.
16. His Thoughts Were Red Thought - Кровавые помыслы.
17. Cheap Burgundy - Дешёвое красное вино.
18. Ruddy Cheeks - Здоровый румянец.
19. Pink Champagne On Ice - Розовое шампанское на льду.
20. Somethings Rotten in Redmund - Подгнило что-то в Редмонде.
21. Ruby Slippers - Красные башмачки.
22. So Long, and Thanks for All the Red Snapper - Всего хорошего, и спасибо за красную рыбу.
23. Red Rover, Red Rover - Разорвать кровавую цепь.
24. The Crimson Hat - Кровавая подружка.

Скриншоты

-1. Scarlet Ribbons - Алые ленты.- -2. Little Red Book - Маленькая красная книжка.- -3. Pretty Red Balloon - Красный воздушный шарик.- -4. Ring around the Rosie - Кровавый хоровод.- -5. Blood and Sand - Кровь и песок.- -6. Where in the World is Carmine O'Brien? - Да где же Кармин О'Брайен?- -7. Blinking Red Light - Красный мигающий огонёк.- -8. Pink Tops - Розовые топики.- -9. The Redshirt - Красная футболка.- -10. Fugue in Red - Фуга в красных тонах.- -11. Always bet on red - Всегда ставь на красное.- -12. My Bloody Valentine - Мой кровавый Валентин.- -13. Red Is The New Black - Красный снова в моде.- -14. At First Blush - С первого взгляда.- -15. War Of The Roses - Война роз.- -16. His Thoughts Were Red Thought - Кровавые помыслы.- -17. Cheap Burgundy - Дешёвое красное вино.- -18. Ruddy Cheeks - Здоровый румянец.- -19. Pink Champagne On Ice - Розовое шампанское на льду.- -20. Somethings Rotten in Redmund - Подгнило что-то в Редмонде.- -21. Ruby Slippers - Красные башмачки.- -22. So Long, and Thanks for All the Red Snapper - Всего хорошего, и спасибо за красную рыбу.- -23. Red Rover, Red Rove - Разорвать кровавую цепьr.- -24. The Crimson Hat - Кровавая подружка.- -
-

Внимание! Раздача ведётся путём добавления новых серий!

Внимание! Раздача ведётся путём добавления новых серий; при каждом добавлении создаётся новый торрент. Чтобы начать докачку новой серии, пользователям необходимо сделать следующее:
(1) остановить скачивание.
(2) удалить старый торрент у себя из клиента (старые серии удалять не надо).
(3) скачать новый торрент и запустить его у себя в клиенте вместо старого, при этом указать клиенту путь в старую папку куда и должно происходить скачивание новых серий.
Ваш клиент при этом должен произвести хеширование (проверку) старой папки (если не производит сам - помогите ему сделать это), и будет докачивать только те серии которых у вас ещё нет. Старые серии при этом не удаляются, а продолжают раздаваться!
Eсли вы уже удалили старые серии, то предотвратить повторную закачку старых серий можно, отжав галочку в соответсвующих местах при запуске нового торрента.- Как закачать отдельный файл из торрента или докачать ранее пропущенные файлы торрента!
-29/05/12 Торрент-файл обновлен, добавлена 24-я серия!-Финал сезона!-
[cybertorrent.ru].t7790.torrent 
Торрент: Зарегистрирован [ 2018-02-18 23:20 ] · CE968DDDF57C99A23A756208BCBF72867B161BB5

Скачать .torrent

Скачать

161 KB

Статус: проверено
Скачан: 0 раз
Размер: 31,72 GB
Профиль [ЛС]
Показать сообщения:    

Текущее время: 27-Май 19:47

Часовой пояс: UTC ± 0



Вы не можете начинать темы
Вы не можете отвечать на сообщения
Вы не можете редактировать свои сообщения
Вы не можете удалять свои сообщения
Вы не можете голосовать в опросах
Вы не можете прикреплять файлы к сообщениям
Вы можете скачивать файлы