Статистика раздачи
Размер:  8,13 GB   |    Зарегистрирован:  2 месяца 8 дней   |    Скачан:  0 раз

Полного источника не было: Никогда

 
   
 
 

Crazy ®

Пол:
Не указан
Стаж:
2 месяца 8 дней
Сообщений:
363

Вода Великая Тайна Воды
Год выпуска: 2006
Страна: Россия
Жанр: научно-познавательный
Продолжительность: 1:21:19
Перевод: Не требуется
Русские субтитры: нет
Режиссер: Анастасия Попова
Описание: Тот самый фильм о ВОДЕ.
Фильм рассказывает о самом привычном для нас, и в то же время о самом до сих пор неизученном веществе. О ВОДЕ.
Вас ждет завораживающее и увлекательное путешествие к самым истокам мироздания и разгадка древнейшей из тайн, которая долгое время ставила всех в тупик - ВЕЛИКАЯ ТАЙНА ВОДЫ. Современные ученые выдвигают гипотезу, что ВОДА обладает памятью! Открыто ее четвертое состояние - информационное! Вода способна воспринимать, сохранять и передавать информацию даже такую тонкую, как человеческая мысль, эмоция, слово.
Уникальные съемки, сложная графика, участие представителей всех религиозных конфессий, открытия ученых России, Казахстана, Швейцарии, Израиля, США, Англии, Австрии, Японии, Китая, Тибета...
География фильма - весь мир. Идея фильма простирается значительно дальше. Никакое краткое описание этого не объяснит. Фильм нужно смотреть!
Меню: есть, анимированное, озвученное
Главы (разбивка по трекам): есть
Качество: DVD9
Формат: DVD Video
Видео кодек: MPEG2
Аудио кодек: AC3
Видео: MPEG2, PAL 4:3 (720x576) VBR, ~ 8500 kbps, 25 кадров/сек
Аудио: русский, AC3, 2 канала (L,R), стерео, 48 КГц, 192 kps
Аудио 2: русский, DTS, 6 каналов (L,C,R,SL,SR), стерео, 48 КГц, 768 kbps
Аудио 3: русский, AC3, 6 каналов(L,C,R,SL,SR)+LFE, стерео, 48 КГц, 384 kbps

DVDInfo

Title: DVD_Water
Size: 8.13 Gb ( 8 526 580,00 KBytes ) - Unknown
Enabled regions: 1, 2, 3, 4, 5, 6, 8
VTS_01 :
Play Length: 00:00:19
Video: PAL 4:3 (720x576) VBR
Audio:
Not specified (Dolby AC3, 2 ch)
VTS_02 :
Play Length: 00:00:04
Video: PAL 4:3 (720x576) VBR
VTS_03 :
Play Length: 00:00:11
Video: PAL 4:3 (720x576) VBR
Audio:
Not specified (Dolby AC3, 2 ch)
VTS_04 :
Play Length: 00:00:02
Video: PAL 4:3 (720x576) VBR
Audio:
Not specified (Dolby AC3, 2 ch)
VTS_05 :
Play Length: 00:00:02
Video: PAL 4:3 (720x576) VBR
Audio:
Not specified (Dolby AC3, 2 ch)
VTS_06 :
Play Length: 01:21:19
Video: PAL 4:3 (720x576) VBR
Audio:
Russian (Dolby AC3, 2 ch)
Russian (DTS, 6 ch)
Russian (Dolby AC3, 6 ch)
* Menus Information *
VIDEO_TS Menu
Video:
PAL 4:3 (720x576) VBR
English Language Unit :
Title Menu
VTS_01 Menu
Video:
PAL 4:3 (720x576) VBR
Audio:
Not specified (Dolby AC3, 2 ch)
English Language Unit :
Root Menu
Audio Menu
Chapter (PTT) Menu
VTS_02 Menu
Video:
PAL 4:3 (720x576) VBR
English Language Unit :
Root Menu
Audio Menu
Chapter (PTT) Menu
VTS_03 Menu
Video:
PAL 4:3 (720x576) VBR
English Language Unit :
Root Menu
Audio Menu
Chapter (PTT) Menu
VTS_04 Menu
Video:
PAL 4:3 (720x576) VBR
English Language Unit :
Root Menu
Audio Menu
Chapter (PTT) Menu
VTS_05 Menu
Video:
PAL 4:3 (720x576) VBR
English Language Unit :
Root Menu
Audio Menu
Chapter (PTT) Menu
VTS_06 Menu
Video:
PAL 4:3 (720x576) VBR
English Language Unit :
Root Menu
Audio Menu
Chapter (PTT) Menu

MediaInfo

General
Complete name : C:\DVD_Water\VIDEO_TS\VIDEO_TS.BUP
Format : DVD Video
Format profile : Menu
File size : 18.0 KiB
Overall bit rate mode : Variable
FileExtension_Invalid : ifo
Video
ID : 224 (0xE0)
Format : MPEG Video
Format version : Version 2
Bit rate mode : Variable
Width : 720 pixels
Height : 576 pixels
Display aspect ratio : 4:3
Frame rate : 25.000 FPS
Standard : PAL
Compression mode : Lossy
Text
Format : RLE
Format/Info : Run-length encoding
Bit depth : 2 bits
General
Complete name : C:\DVD_Water\VIDEO_TS\VIDEO_TS.IFO
Format : DVD Video
Format profile : Menu
File size : 18.0 KiB
Overall bit rate mode : Variable
Video
ID : 224 (0xE0)
Format : MPEG Video
Format version : Version 2
Bit rate mode : Variable
Width : 720 pixels
Height : 576 pixels
Display aspect ratio : 4:3
Frame rate : 25.000 FPS
Standard : PAL
Compression mode : Lossy
Text
Format : RLE
Format/Info : Run-length encoding
Bit depth : 2 bits
General
Complete name : C:\DVD_Water\VIDEO_TS\VIDEO_TS.VOB
Format : MPEG-PS
File size : 154 KiB
Duration : 600 ms
Overall bit rate : 2 103 kb/s
Video
ID : 224 (0xE0)
Format : MPEG Video
Format version : Version 2
Format profile : Main@Main
Format settings, BVOP : Yes
Format settings, Matrix : Custom
Format settings, picture structure : Frame
Duration : 600 ms
Bit rate mode : Constant
Maximum bit rate : 2 000 kb/s
Width : 720 pixels
Height : 576 pixels
Display aspect ratio : 4:3
Frame rate : 25.000 FPS
Standard : PAL
Color space : YUV
Chroma subsampling : 4:2:0
Bit depth : 8 bits
Scan type : Interlaced
Scan order : Top Field First
Compression mode : Lossy
Time code of first frame : 00:00:00:00
Time code source : Group of pictures header
Text
ID : 189 (0xBD)-32 (0x20)
Format : RLE
Format/Info : Run-length encoding
Muxing mode : DVD-Video
Menu
General
Complete name : C:\DVD_Water\VIDEO_TS\VTS_01_0.BUP
Format : DVD Video
Format profile : Program
File size : 22.0 KiB
Duration : 19 s 960 ms
Overall bit rate mode : Variable
Overall bit rate : 9 029 b/s
FileExtension_Invalid : ifo
Video
ID : 224 (0xE0)
Format : MPEG Video
Format version : Version 2
Duration : 19 s 960 ms
Bit rate mode : Variable
Width : 720 pixels
Height : 576 pixels
Display aspect ratio : 4:3
Frame rate : 25.000 FPS
Standard : PAL
Compression mode : Lossy
Audio
ID : 128 (0x80)
Format : AC-3
Format/Info : Audio Coding 3
Duration : 19 s 960 ms
Channel(s) : 2 channels
Sampling rate : 48.0 kHz
Compression mode : Lossy
Menu
Duration : 19 s 960 ms
00:00:00.000 : Chapter 1
List (Audio) : 0
General
Complete name : C:\DVD_Water\VIDEO_TS\VTS_01_0.IFO
Format : DVD Video
Format profile : Program
File size : 22.0 KiB
Duration : 19 s 960 ms
Overall bit rate mode : Variable
Overall bit rate : 9 029 b/s
Video
ID : 224 (0xE0)
Format : MPEG Video
Format version : Version 2
Duration : 19 s 960 ms
Bit rate mode : Variable
Width : 720 pixels
Height : 576 pixels
Display aspect ratio : 4:3
Frame rate : 25.000 FPS
Standard : PAL
Compression mode : Lossy
Audio
ID : 128 (0x80)
Format : AC-3
Format/Info : Audio Coding 3
Duration : 19 s 960 ms
Channel(s) : 2 channels
Sampling rate : 48.0 kHz
Compression mode : Lossy
Menu
Duration : 19 s 960 ms
00:00:00.000 : Chapter 1
List (Audio) : 0
General
Complete name : C:\DVD_Water\VIDEO_TS\VTS_01_0.VOB
Format : MPEG-PS
File size : 130 MiB
Duration : 37 s 824 ms
Overall bit rate mode : Variable
Overall bit rate : 28.9 Mb/s
Video
ID : 224 (0xE0)
Format : MPEG Video
Format version : Version 2
Format profile : Main@Main
Format settings, BVOP : Yes
Format settings, Matrix : Custom
Format settings, GOP : M=3, N=15
Format settings, picture structure : Frame
Duration : 37 s 800 ms
Bit rate mode : Variable
Bit rate : 28.1 Mb/s
Maximum bit rate : 8 500 kb/s
Width : 720 pixels
Height : 576 pixels
Display aspect ratio : 4:3
Frame rate : 25.000 FPS
Standard : PAL
Color space : YUV
Chroma subsampling : 4:2:0
Bit depth : 8 bits
Scan type : Interlaced
Scan order : Bottom Field First
Compression mode : Lossy
Bits/(Pixel*Frame) : 2.713
Time code of first frame : 00:00:00:00
Time code source : Group of pictures header
GOP, Open/Closed : Closed
Stream size : 127 MiB (97%)
Color primaries : BT.601 PAL
Transfer characteristics : BT.470 System B, BT.470 System G
Matrix coefficients : BT.601
Audio
ID : 189 (0xBD)-128 (0x80)
Format : AC-3
Format/Info : Audio Coding 3
Format settings, Endianness : Big
Muxing mode : DVD-Video
Duration : 37 s 824 ms
Bit rate mode : Constant
Bit rate : 192 kb/s
Channel(s) : 2 channels
Channel positions : Front: L R
Sampling rate : 48.0 kHz
Frame rate : 31.250 FPS (1536 SPF)
Bit depth : 16 bits
Compression mode : Lossy
Stream size : 887 KiB (1%)
Service kind : Complete Main
Text
ID : 189 (0xBD)-32 (0x20)
Format : RLE
Format/Info : Run-length encoding
Muxing mode : DVD-Video
Menu
General
Complete name : C:\DVD_Water\VIDEO_TS\VTS_01_1.VOB
Format : MPEG-PS
File size : 11.4 MiB
Duration : 19 s 960 ms
Overall bit rate mode : Variable
Overall bit rate : 4 775 kb/s
Video
ID : 224 (0xE0)
Format : MPEG Video
Format version : Version 2
Format profile : Main@Main
Format settings, BVOP : Yes
Format settings, Matrix : Default
Format settings, GOP : Variable
Format settings, picture structure : Frame
Duration : 19 s 960 ms
Bit rate mode : Variable
Bit rate : 4 488 kb/s
Maximum bit rate : 8 000 kb/s
Width : 720 pixels
Height : 576 pixels
Display aspect ratio : 4:3
Frame rate : 25.000 FPS
Standard : PAL
Color space : YUV
Chroma subsampling : 4:2:0
Bit depth : 8 bits
Scan type : Interlaced
Scan order : Bottom Field First
Compression mode : Lossy
Bits/(Pixel*Frame) : 0.433
Time code of first frame : 00:00:00:10
Time code source : Group of pictures header
GOP, Open/Closed : Open
Stream size : 10.7 MiB (94%)
Audio
ID : 189 (0xBD)-128 (0x80)
Format : AC-3
Format/Info : Audio Coding 3
Format settings, Endianness : Big
Muxing mode : DVD-Video
Duration : 19 s 936 ms
Bit rate mode : Constant
Bit rate : 192 kb/s
Channel(s) : 2 channels
Channel positions : Front: L R
Sampling rate : 48.0 kHz
Frame rate : 31.250 FPS (1536 SPF)
Bit depth : 16 bits
Compression mode : Lossy
Stream size : 467 KiB (4%)
Service kind : Complete Main
Menu
General
Complete name : C:\DVD_Water\VIDEO_TS\VTS_01_2.VOB
Format : MPEG-PS
File size : 1 024 MiB
Duration : 18 min 59 s
Overall bit rate mode : Variable
Overall bit rate : 7 542 kb/s
Video
ID : 224 (0xE0)
Format : MPEG Video
Format version : Version 2
Format profile : Main@Main
Format settings, BVOP : Yes
Format settings, Matrix : Custom
Format settings, GOP : M=3, N=15
Format settings, picture structure : Frame
Duration : 18 min 58 s
Bit rate mode : Variable
Bit rate : 7 200 kb/s
Maximum bit rate : 8 000 kb/s
Width : 720 pixels
Height : 576 pixels
Display aspect ratio : 4:3
Frame rate : 25.000 FPS
Standard : PAL
Color space : YUV
Chroma subsampling : 4:2:0
Bit depth : 8 bits
Scan type : Interlaced
Scan order : Bottom Field First
Compression mode : Lossy
Bits/(Pixel*Frame) : 0.694
Time code of first frame : 01:20:02:17
Time code source : Group of pictures header
GOP, Open/Closed : Open
Stream size : 977 MiB (95%)
Audio
ID : 189 (0xBD)-128 (0x80)
Format : AC-3
Format/Info : Audio Coding 3
Format settings, Endianness : Big
Muxing mode : DVD-Video
Duration : 18 min 59 s
Bit rate mode : Constant
Bit rate : 192 kb/s
Channel(s) : 2 channels
Channel positions : Front: L R
Sampling rate : 48.0 kHz
Frame rate : 31.250 FPS (1536 SPF)
Bit depth : 16 bits
Compression mode : Lossy
Delay relative to video : -616 ms
Stream size : 26.1 MiB (3%)
Service kind : Complete Main
Menu
General
Complete name : C:\DVD_Water\VIDEO_TS\VTS_01_3.VOB
Format : MPEG-PS
File size : 1 024 MiB
Duration : 19 min 53 s
Overall bit rate mode : Variable
Overall bit rate : 7 200 kb/s
Video
ID : 224 (0xE0)
Format : MPEG Video
Format version : Version 2
Format profile : Main@Main
Format settings, BVOP : Yes
Format settings, Matrix : Custom
Format settings, GOP : Variable
Format settings, picture structure : Frame
Duration : 19 min 52 s
Bit rate mode : Variable
Bit rate : 6 865 kb/s
Maximum bit rate : 8 000 kb/s
Width : 720 pixels
Height : 576 pixels
Display aspect ratio : 4:3
Frame rate : 25.000 FPS
Standard : PAL
Color space : YUV
Chroma subsampling : 4:2:0
Bit depth : 8 bits
Scan type : Interlaced
Scan order : Bottom Field First
Compression mode : Lossy
Bits/(Pixel*Frame) : 0.662
Time code of first frame : 01:39:01:21
Time code source : Group of pictures header
Stream size : 976 MiB (95%)
Audio
ID : 189 (0xBD)-128 (0x80)
Format : AC-3
Format/Info : Audio Coding 3
Format settings, Endianness : Big
Muxing mode : DVD-Video
Duration : 19 min 53 s
Bit rate mode : Constant
Bit rate : 192 kb/s
Channel(s) : 2 channels
Channel positions : Front: L R
Sampling rate : 48.0 kHz
Frame rate : 31.250 FPS (1536 SPF)
Bit depth : 16 bits
Compression mode : Lossy
Delay relative to video : -736 ms
Stream size : 27.3 MiB (3%)
Service kind : Complete Main
Menu
General
Complete name : C:\DVD_Water\VIDEO_TS\VTS_01_4.VOB
Format : MPEG-PS
File size : 1 024 MiB
Duration : 19 min 16 s
Overall bit rate mode : Variable
Overall bit rate : 7 430 kb/s
Video
ID : 224 (0xE0)
Format : MPEG Video
Format version : Version 2
Format profile : Main@Main
Format settings, BVOP : Yes
Format settings, Matrix : Custom
Format settings, GOP : M=3, N=15
Format settings, picture structure : Frame
Duration : 19 min 16 s
Bit rate mode : Variable
Bit rate : 7 090 kb/s
Maximum bit rate : 8 000 kb/s
Width : 720 pixels
Height : 576 pixels
Display aspect ratio : 4:3
Frame rate : 25.000 FPS
Standard : PAL
Color space : YUV
Chroma subsampling : 4:2:0
Bit depth : 8 bits
Scan type : Interlaced
Scan order : Bottom Field First
Compression mode : Lossy
Bits/(Pixel*Frame) : 0.684
Time code of first frame : 01:58:54:13
Time code source : Group of pictures header
Stream size : 977 MiB (95%)
Audio
ID : 189 (0xBD)-128 (0x80)
Format : AC-3
Format/Info : Audio Coding 3
Format settings, Endianness : Big
Muxing mode : DVD-Video
Duration : 19 min 16 s
Bit rate mode : Constant
Bit rate : 192 kb/s
Channel(s) : 2 channels
Channel positions : Front: L R
Sampling rate : 48.0 kHz
Frame rate : 31.250 FPS (1536 SPF)
Bit depth : 16 bits
Compression mode : Lossy
Delay relative to video : -360 ms
Stream size : 26.5 MiB (3%)
Service kind : Complete Main
Menu
General
Complete name : C:\DVD_Water\VIDEO_TS\VTS_01_5.VOB
Format : MPEG-PS
File size : 157 MiB
Duration : 3 min 9 s
Overall bit rate mode : Variable
Overall bit rate : 6 945 kb/s
Video
ID : 224 (0xE0)
Format : MPEG Video
Format version : Version 2
Format profile : Main@Main
Format settings, BVOP : Yes
Format settings, Matrix : Custom
Format settings, GOP : M=3, N=15
Format settings, picture structure : Frame
Duration : 3 min 8 s
Bit rate mode : Variable
Bit rate : 6 615 kb/s
Maximum bit rate : 8 000 kb/s
Width : 720 pixels
Height : 576 pixels
Display aspect ratio : 4:3
Frame rate : 25.000 FPS
Standard : PAL
Color space : YUV
Chroma subsampling : 4:2:0
Bit depth : 8 bits
Scan type : Interlaced
Scan order : Bottom Field First
Compression mode : Lossy
Bits/(Pixel*Frame) : 0.638
Time code of first frame : 02:18:10:16
Time code source : Group of pictures header
GOP, Open/Closed : Open
Stream size : 149 MiB (95%)
Audio
ID : 189 (0xBD)-128 (0x80)
Format : AC-3
Format/Info : Audio Coding 3
Format settings, Endianness : Big
Muxing mode : DVD-Video
Duration : 3 min 9 s
Bit rate mode : Constant
Bit rate : 192 kb/s
Channel(s) : 2 channels
Channel positions : Front: L R
Sampling rate : 48.0 kHz
Frame rate : 31.250 FPS (1536 SPF)
Bit depth : 16 bits
Compression mode : Lossy
Delay relative to video : -320 ms
Stream size : 4.33 MiB (3%)
Service kind : Complete Main
Menu
General
Complete name : C:\DVD_Water\VIDEO_TS\VTS_02_0.BUP
Format : DVD Video
Format profile : Program
File size : 18.0 KiB
Duration : 4 s 160 ms
Overall bit rate mode : Variable
Overall bit rate : 35.4 kb/s
FileExtension_Invalid : ifo
Video
ID : 224 (0xE0)
Format : MPEG Video
Format version : Version 2
Duration : 4 s 160 ms
Bit rate mode : Variable
Bit rate : 27.1 kb/s
Width : 720 pixels
Height : 576 pixels
Display aspect ratio : 4:3
Frame rate : 25.000 FPS
Standard : PAL
Compression mode : Lossy
Bits/(Pixel*Frame) : 0.003
Stream size : 13.8 KiB (77%)
Menu
Duration : 4 s 160 ms
00:00:00.000 : Chapter 1
General
Complete name : C:\DVD_Water\VIDEO_TS\VTS_02_0.IFO
Format : DVD Video
Format profile : Program
File size : 18.0 KiB
Duration : 4 s 160 ms
Overall bit rate mode : Variable
Overall bit rate : 35.4 kb/s
Video
ID : 224 (0xE0)
Format : MPEG Video
Format version : Version 2
Duration : 4 s 160 ms
Bit rate mode : Variable
Bit rate : 27.1 kb/s
Width : 720 pixels
Height : 576 pixels
Display aspect ratio : 4:3
Frame rate : 25.000 FPS
Standard : PAL
Compression mode : Lossy
Bits/(Pixel*Frame) : 0.003
Stream size : 13.8 KiB (77%)
Menu
Duration : 4 s 160 ms
00:00:00.000 : Chapter 1
General
Complete name : C:\DVD_Water\VIDEO_TS\VTS_02_0.VOB
Format : MPEG-PS
File size : 154 KiB
Duration : 600 ms
Overall bit rate : 2 103 kb/s
Video
ID : 224 (0xE0)
Format : MPEG Video
Format version : Version 2
Format profile : Main@Main
Format settings, BVOP : Yes
Format settings, Matrix : Custom
Format settings, picture structure : Frame
Duration : 600 ms
Bit rate mode : Constant
Maximum bit rate : 2 000 kb/s
Width : 720 pixels
Height : 576 pixels
Display aspect ratio : 4:3
Frame rate : 25.000 FPS
Standard : PAL
Color space : YUV
Chroma subsampling : 4:2:0
Bit depth : 8 bits
Scan type : Interlaced
Scan order : Top Field First
Compression mode : Lossy
Time code of first frame : 00:00:00:00
Time code source : Group of pictures header
Text
ID : 189 (0xBD)-32 (0x20)
Format : RLE
Format/Info : Run-length encoding
Muxing mode : DVD-Video
Menu
General
Complete name : C:\DVD_Water\VIDEO_TS\VTS_02_1.VOB
Format : MPEG-PS
File size : 140 KiB
Duration : 40 ms
Overall bit rate mode : Variable
Overall bit rate : 28.7 Mb/s
Video
ID : 224 (0xE0)
Format : MPEG Video
Format version : Version 2
Format profile : Main@Main
Format settings, BVOP : No
Format settings, Matrix : Custom
Duration : 40 ms
Bit rate mode : Variable
Maximum bit rate : 9 000 kb/s
Width : 720 pixels
Height : 576 pixels
Display aspect ratio : 4:3
Frame rate : 25.000 FPS
Standard : PAL
Color space : YUV
Chroma subsampling : 4:2:0
Bit depth : 8 bits
Scan type : Progressive
Scan order : Top Field First
Compression mode : Lossy
Time code of first frame : 00:00:00:00
Time code source : Group of pictures header
Menu
General
Complete name : C:\DVD_Water\VIDEO_TS\VTS_03_0.BUP
Format : DVD Video
Format profile : Program
File size : 18.0 KiB
Duration : 11 s 0 ms
Overall bit rate mode : Variable
Overall bit rate : 13.4 kb/s
FileExtension_Invalid : ifo
Video
ID : 224 (0xE0)
Format : MPEG Video
Format version : Version 2
Duration : 11 s 0 ms
Bit rate mode : Variable
Width : 720 pixels
Height : 576 pixels
Display aspect ratio : 4:3
Frame rate : 25.000 FPS
Standard : PAL
Compression mode : Lossy
Audio
ID : 128 (0x80)
Format : AC-3
Format/Info : Audio Coding 3
Duration : 11 s 0 ms
Channel(s) : 2 channels
Sampling rate : 48.0 kHz
Compression mode : Lossy
Menu
Duration : 11 s 0 ms
00:00:00.000 : Chapter 1
List (Audio) : 0
General
Complete name : C:\DVD_Water\VIDEO_TS\VTS_03_0.IFO
Format : DVD Video
Format profile : Program
File size : 18.0 KiB
Duration : 11 s 0 ms
Overall bit rate mode : Variable
Overall bit rate : 13.4 kb/s
Video
ID : 224 (0xE0)
Format : MPEG Video
Format version : Version 2
Duration : 11 s 0 ms
Bit rate mode : Variable
Width : 720 pixels
Height : 576 pixels
Display aspect ratio : 4:3
Frame rate : 25.000 FPS
Standard : PAL
Compression mode : Lossy
Audio
ID : 128 (0x80)
Format : AC-3
Format/Info : Audio Coding 3
Duration : 11 s 0 ms
Channel(s) : 2 channels
Sampling rate : 48.0 kHz
Compression mode : Lossy
Menu
Duration : 11 s 0 ms
00:00:00.000 : Chapter 1
List (Audio) : 0
General
Complete name : C:\DVD_Water\VIDEO_TS\VTS_03_0.VOB
Format : MPEG-PS
File size : 154 KiB
Duration : 600 ms
Overall bit rate : 2 103 kb/s
Video
ID : 224 (0xE0)
Format : MPEG Video
Format version : Version 2
Format profile : Main@Main
Format settings, BVOP : Yes
Format settings, Matrix : Custom
Format settings, picture structure : Frame
Duration : 600 ms
Bit rate mode : Constant
Maximum bit rate : 2 000 kb/s
Width : 720 pixels
Height : 576 pixels
Display aspect ratio : 4:3
Frame rate : 25.000 FPS
Standard : PAL
Color space : YUV
Chroma subsampling : 4:2:0
Bit depth : 8 bits
Scan type : Interlaced
Scan order : Top Field First
Compression mode : Lossy
Time code of first frame : 00:00:00:00
Time code source : Group of pictures header
Text
ID : 189 (0xBD)-32 (0x20)
Format : RLE
Format/Info : Run-length encoding
Muxing mode : DVD-Video
Menu
General
Complete name : C:\DVD_Water\VIDEO_TS\VTS_03_1.VOB
Format : MPEG-PS
File size : 9.01 MiB
Duration : 11 s 8 ms
Overall bit rate mode : Variable
Overall bit rate : 6 864 kb/s
Video
ID : 224 (0xE0)
Format : MPEG Video
Format version : Version 2
Format profile : Main@Main
Format settings, BVOP : Yes
Format settings, Matrix : Custom
Format settings, GOP : M=3, N=12
Format settings, picture structure : Frame
Duration : 11 s 0 ms
Bit rate mode : Variable
Bit rate : 6 536 kb/s
Width : 720 pixels
Height : 576 pixels
Display aspect ratio : 4:3
Frame rate : 25.000 FPS
Standard : PAL
Color space : YUV
Chroma subsampling : 4:2:0
Bit depth : 8 bits
Scan type : Interlaced
Scan order : Bottom Field First
Compression mode : Lossy
Bits/(Pixel*Frame) : 0.630
Time code of first frame : 00:00:00:00
Time code source : Group of pictures header
GOP, Open/Closed : Closed
Stream size : 8.57 MiB (95%)
Audio
ID : 189 (0xBD)-128 (0x80)
Format : AC-3
Format/Info : Audio Coding 3
Format settings, Endianness : Big
Muxing mode : DVD-Video
Duration : 11 s 8 ms
Bit rate mode : Constant
Bit rate : 192 kb/s
Channel(s) : 2 channels
Channel positions : Front: L R
Sampling rate : 48.0 kHz
Frame rate : 31.250 FPS (1536 SPF)
Bit depth : 16 bits
Compression mode : Lossy
Stream size : 258 KiB (3%)
Service kind : Complete Main
Menu
General
Complete name : C:\DVD_Water\VIDEO_TS\VTS_04_0.BUP
Format : DVD Video
Format profile : Program
File size : 18.0 KiB
Duration : 2 s 960 ms
Overall bit rate mode : Variable
Overall bit rate : 49.8 kb/s
FileExtension_Invalid : ifo
Video
ID : 224 (0xE0)
Format : MPEG Video
Format version : Version 2
Duration : 2 s 960 ms
Bit rate mode : Variable
Width : 720 pixels
Height : 576 pixels
Display aspect ratio : 4:3
Frame rate : 25.000 FPS
Standard : PAL
Compression mode : Lossy
Audio
ID : 128 (0x80)
Format : AC-3
Format/Info : Audio Coding 3
Duration : 2 s 960 ms
Channel(s) : 2 channels
Sampling rate : 48.0 kHz
Compression mode : Lossy
Menu
Duration : 2 s 960 ms
00:00:00.000 : Chapter 1
List (Audio) : 0
General
Complete name : C:\DVD_Water\VIDEO_TS\VTS_04_0.IFO
Format : DVD Video
Format profile : Program
File size : 18.0 KiB
Duration : 2 s 960 ms
Overall bit rate mode : Variable
Overall bit rate : 49.8 kb/s
Video
ID : 224 (0xE0)
Format : MPEG Video
Format version : Version 2
Duration : 2 s 960 ms
Bit rate mode : Variable
Width : 720 pixels
Height : 576 pixels
Display aspect ratio : 4:3
Frame rate : 25.000 FPS
Standard : PAL
Compression mode : Lossy
Audio
ID : 128 (0x80)
Format : AC-3
Format/Info : Audio Coding 3
Duration : 2 s 960 ms
Channel(s) : 2 channels
Sampling rate : 48.0 kHz
Compression mode : Lossy
Menu
Duration : 2 s 960 ms
00:00:00.000 : Chapter 1
List (Audio) : 0
General
Complete name : C:\DVD_Water\VIDEO_TS\VTS_04_0.VOB
Format : MPEG-PS
File size : 154 KiB
Duration : 600 ms
Overall bit rate : 2 103 kb/s
Video
ID : 224 (0xE0)
Format : MPEG Video
Format version : Version 2
Format profile : Main@Main
Format settings, BVOP : Yes
Format settings, Matrix : Custom
Format settings, picture structure : Frame
Duration : 600 ms
Bit rate mode : Constant
Maximum bit rate : 2 000 kb/s
Width : 720 pixels
Height : 576 pixels
Display aspect ratio : 4:3
Frame rate : 25.000 FPS
Standard : PAL
Color space : YUV
Chroma subsampling : 4:2:0
Bit depth : 8 bits
Scan type : Interlaced
Scan order : Top Field First
Compression mode : Lossy
Time code of first frame : 00:00:00:00
Time code source : Group of pictures header
Text
ID : 189 (0xBD)-32 (0x20)
Format : RLE
Format/Info : Run-length encoding
Muxing mode : DVD-Video
Menu
General
Complete name : C:\DVD_Water\VIDEO_TS\VTS_04_1.VOB
Format : MPEG-PS
File size : 1.86 MiB
Duration : 2 s 960 ms
Overall bit rate mode : Variable
Overall bit rate : 5 269 kb/s
Video
ID : 224 (0xE0)
Format : MPEG Video
Format version : Version 2
Format profile : Main@Main
Format settings, BVOP : Yes
Format settings, Matrix : Custom
Format settings, GOP : M=3, N=15
Format settings, picture structure : Frame
Duration : 2 s 960 ms
Bit rate mode : Variable
Bit rate : 4 973 kb/s
Maximum bit rate : 8 500 kb/s
Width : 720 pixels
Height : 576 pixels
Display aspect ratio : 4:3
Frame rate : 25.000 FPS
Standard : PAL
Color space : YUV
Chroma subsampling : 4:2:0
Bit depth : 8 bits
Scan type : Interlaced
Scan order : Bottom Field First
Compression mode : Lossy
Bits/(Pixel*Frame) : 0.480
Time code of first frame : 00:00:00:00
Time code source : Group of pictures header
GOP, Open/Closed : Closed
Stream size : 1.75 MiB (94%)
Color primaries : BT.601 PAL
Transfer characteristics : BT.470 System B, BT.470 System G
Matrix coefficients : BT.601
Audio
ID : 189 (0xBD)-128 (0x80)
Format : AC-3
Format/Info : Audio Coding 3
Format settings, Endianness : Big
Muxing mode : DVD-Video
Duration : 2 s 944 ms
Bit rate mode : Constant
Bit rate : 192 kb/s
Channel(s) : 2 channels
Channel positions : Front: L R
Sampling rate : 48.0 kHz
Frame rate : 31.250 FPS (1536 SPF)
Bit depth : 16 bits
Compression mode : Lossy
Stream size : 69.0 KiB (4%)
Service kind : Complete Main
Menu
General
Complete name : C:\DVD_Water\VIDEO_TS\VTS_05_0.BUP
Format : DVD Video
Format profile : Program
File size : 18.0 KiB
Duration : 2 s 760 ms
Overall bit rate mode : Variable
Overall bit rate : 53.4 kb/s
FileExtension_Invalid : ifo
Video
ID : 224 (0xE0)
Format : MPEG Video
Format version : Version 2
Duration : 2 s 760 ms
Bit rate mode : Variable
Width : 720 pixels
Height : 576 pixels
Display aspect ratio : 4:3
Frame rate : 25.000 FPS
Standard : PAL
Compression mode : Lossy
Audio
ID : 128 (0x80)
Format : AC-3
Format/Info : Audio Coding 3
Duration : 2 s 760 ms
Channel(s) : 2 channels
Sampling rate : 48.0 kHz
Compression mode : Lossy
Menu
Duration : 2 s 760 ms
00:00:00.000 : Chapter 1
List (Audio) : 0
General
Complete name : C:\DVD_Water\VIDEO_TS\VTS_05_0.IFO
Format : DVD Video
Format profile : Program
File size : 18.0 KiB
Duration : 2 s 760 ms
Overall bit rate mode : Variable
Overall bit rate : 53.4 kb/s
Video
ID : 224 (0xE0)
Format : MPEG Video
Format version : Version 2
Duration : 2 s 760 ms
Bit rate mode : Variable
Width : 720 pixels
Height : 576 pixels
Display aspect ratio : 4:3
Frame rate : 25.000 FPS
Standard : PAL
Compression mode : Lossy
Audio
ID : 128 (0x80)
Format : AC-3
Format/Info : Audio Coding 3
Duration : 2 s 760 ms
Channel(s) : 2 channels
Sampling rate : 48.0 kHz
Compression mode : Lossy
Menu
Duration : 2 s 760 ms
00:00:00.000 : Chapter 1
List (Audio) : 0
General
Complete name : C:\DVD_Water\VIDEO_TS\VTS_05_0.VOB
Format : MPEG-PS
File size : 154 KiB
Duration : 600 ms
Overall bit rate : 2 103 kb/s
Video
ID : 224 (0xE0)
Format : MPEG Video
Format version : Version 2
Format profile : Main@Main
Format settings, BVOP : Yes
Format settings, Matrix : Custom
Format settings, picture structure : Frame
Duration : 600 ms
Bit rate mode : Constant
Maximum bit rate : 2 000 kb/s
Width : 720 pixels
Height : 576 pixels
Display aspect ratio : 4:3
Frame rate : 25.000 FPS
Standard : PAL
Color space : YUV
Chroma subsampling : 4:2:0
Bit depth : 8 bits
Scan type : Interlaced
Scan order : Top Field First
Compression mode : Lossy
Time code of first frame : 00:00:00:00
Time code source : Group of pictures header
Text
ID : 189 (0xBD)-32 (0x20)
Format : RLE
Format/Info : Run-length encoding
Muxing mode : DVD-Video
Menu
General
Complete name : C:\DVD_Water\VIDEO_TS\VTS_05_1.VOB
Format : MPEG-PS
File size : 1.74 MiB
Duration : 2 s 760 ms
Overall bit rate mode : Variable
Overall bit rate : 5 283 kb/s
Video
ID : 224 (0xE0)
Format : MPEG Video
Format version : Version 2
Format profile : Main@Main
Format settings, BVOP : Yes
Format settings, Matrix : Custom
Format settings, GOP : M=3, N=15
Format settings, picture structure : Frame
Duration : 2 s 760 ms
Bit rate mode : Variable
Bit rate : 4 986 kb/s
Maximum bit rate : 8 500 kb/s
Width : 720 pixels
Height : 576 pixels
Display aspect ratio : 4:3
Frame rate : 25.000 FPS
Standard : PAL
Color space : YUV
Chroma subsampling : 4:2:0
Bit depth : 8 bits
Scan type : Interlaced
Scan order : Bottom Field First
Compression mode : Lossy
Bits/(Pixel*Frame) : 0.481
Time code of first frame : 00:00:00:00
Time code source : Group of pictures header
GOP, Open/Closed : Closed
Stream size : 1.64 MiB (94%)
Color primaries : BT.601 PAL
Transfer characteristics : BT.470 System B, BT.470 System G
Matrix coefficients : BT.601
Audio
ID : 189 (0xBD)-128 (0x80)
Format : AC-3
Format/Info : Audio Coding 3
Format settings, Endianness : Big
Muxing mode : DVD-Video
Duration : 2 s 752 ms
Bit rate mode : Constant
Bit rate : 192 kb/s
Channel(s) : 2 channels
Channel positions : Front: L R
Sampling rate : 48.0 kHz
Frame rate : 31.250 FPS (1536 SPF)
Bit depth : 16 bits
Compression mode : Lossy
Stream size : 64.5 KiB (4%)
Service kind : Complete Main
Menu
General
Complete name : C:\DVD_Water\VIDEO_TS\VTS_06_0.BUP
Format : DVD Video
Format profile : Program
File size : 56.0 KiB
Duration : 1 h 21 min
Overall bit rate mode : Variable
Overall bit rate : 94 b/s
FileExtension_Invalid : ifo
Video
ID : 224 (0xE0)
Format : MPEG Video
Format version : Version 2
Duration : 1 h 21 min
Bit rate mode : Variable
Width : 720 pixels
Height : 576 pixels
Display aspect ratio : 4:3
Frame rate : 25.000 FPS
Standard : PAL
Compression mode : Lossy
Audio #1
ID : 128 (0x80)
Format : AC-3
Format/Info : Audio Coding 3
Duration : 1 h 21 min
Channel(s) : 2 channels
Sampling rate : 48.0 kHz
Compression mode : Lossy
Language : Russian
Audio #2
ID : 137 (0x89)
Format : DTS
Format/Info : Digital Theater Systems
Duration : 1 h 21 min
Channel(s) : 6 channels
Sampling rate : 48.0 kHz
Compression mode : Lossy
Language : Russian
Audio #3
ID : 130 (0x82)
Format : AC-3
Format/Info : Audio Coding 3
Duration : 1 h 21 min
Channel(s) : 6 channels
Sampling rate : 48.0 kHz
Compression mode : Lossy
Language : Russian
Menu
Duration : 1 h 21 min
00:00:00.000 : Chapter 1
00:05:15.040 : Chapter 2
00:13:39.840 : Chapter 3
00:21:57.160 : Chapter 4
00:30:34.720 : Chapter 5
00:36:21.320 : Chapter 6
00:46:03.560 : Chapter 7
00:55:07.200 : Chapter 8
01:01:14.000 : Chapter 9
01:08:33.280 : Chapter 10
01:15:06.400 : Chapter 11
01:20:19.920 : Chapter 12
01:21:19.000 : Chapter 13
List (Audio) : 0 / 1 / 2
General
Complete name : C:\DVD_Water\VIDEO_TS\VTS_06_0.IFO
Format : DVD Video
Format profile : Program
File size : 56.0 KiB
Duration : 1 h 21 min
Overall bit rate mode : Variable
Overall bit rate : 94 b/s
Video
ID : 224 (0xE0)
Format : MPEG Video
Format version : Version 2
Duration : 1 h 21 min
Bit rate mode : Variable
Width : 720 pixels
Height : 576 pixels
Display aspect ratio : 4:3
Frame rate : 25.000 FPS
Standard : PAL
Compression mode : Lossy
Audio #1
ID : 128 (0x80)
Format : AC-3
Format/Info : Audio Coding 3
Duration : 1 h 21 min
Channel(s) : 2 channels
Sampling rate : 48.0 kHz
Compression mode : Lossy
Language : Russian
Audio #2
ID : 137 (0x89)
Format : DTS
Format/Info : Digital Theater Systems
Duration : 1 h 21 min
Channel(s) : 6 channels
Sampling rate : 48.0 kHz
Compression mode : Lossy
Language : Russian
Audio #3
ID : 130 (0x82)
Format : AC-3
Format/Info : Audio Coding 3
Duration : 1 h 21 min
Channel(s) : 6 channels
Sampling rate : 48.0 kHz
Compression mode : Lossy
Language : Russian
Menu
Duration : 1 h 21 min
00:00:00.000 : Chapter 1
00:05:15.040 : Chapter 2
00:13:39.840 : Chapter 3
00:21:57.160 : Chapter 4
00:30:34.720 : Chapter 5
00:36:21.320 : Chapter 6
00:46:03.560 : Chapter 7
00:55:07.200 : Chapter 8
01:01:14.000 : Chapter 9
01:08:33.280 : Chapter 10
01:15:06.400 : Chapter 11
01:20:19.920 : Chapter 12
01:21:19.000 : Chapter 13
List (Audio) : 0 / 1 / 2
General
Complete name : C:\DVD_Water\VIDEO_TS\VTS_06_0.VOB
Format : MPEG-PS
File size : 154 KiB
Duration : 600 ms
Overall bit rate : 2 103 kb/s
Video
ID : 224 (0xE0)
Format : MPEG Video
Format version : Version 2
Format profile : Main@Main
Format settings, BVOP : Yes
Format settings, Matrix : Custom
Format settings, picture structure : Frame
Duration : 600 ms
Bit rate mode : Constant
Maximum bit rate : 2 000 kb/s
Width : 720 pixels
Height : 576 pixels
Display aspect ratio : 4:3
Frame rate : 25.000 FPS
Standard : PAL
Color space : YUV
Chroma subsampling : 4:2:0
Bit depth : 8 bits
Scan type : Interlaced
Scan order : Top Field First
Compression mode : Lossy
Time code of first frame : 00:00:00:00
Time code source : Group of pictures header
Text
ID : 189 (0xBD)-32 (0x20)
Format : RLE
Format/Info : Run-length encoding
Muxing mode : DVD-Video
Menu
General
Complete name : C:\DVD_Water\VIDEO_TS\VTS_06_1.VOB
Format : MPEG-PS
File size : 1 024 MiB
Duration : 17 min 22 s
Overall bit rate mode : Variable
Overall bit rate : 8 236 kb/s
Video
ID : 224 (0xE0)
Format : MPEG Video
Format version : Version 2
Format profile : Main@Main
Format settings, BVOP : Yes
Format settings, Matrix : Custom
Format settings, GOP : Variable
Format settings, picture structure : Frame
Duration : 17 min 22 s
Bit rate mode : Variable
Bit rate : 6 742 kb/s
Maximum bit rate : 8 000 kb/s
Width : 720 pixels
Height : 576 pixels
Display aspect ratio
[cybertorrent.ru].t595.torrent 
Торрент: Зарегистрирован [ 2018-02-15 20:34 ] · AA4B7CAB0B10F3F7B42F2DCBBBD7889E50E0DD94

Скачать .torrent

Скачать

43 KB

Статус: проверено
Скачан: 0 раз
Размер: 8,13 GB
Профиль [ЛС]
Показать сообщения:    

Текущее время: 24-Апр 02:56

Часовой пояс: UTC ± 0



Вы не можете начинать темы
Вы не можете отвечать на сообщения
Вы не можете редактировать свои сообщения
Вы не можете удалять свои сообщения
Вы не можете голосовать в опросах
Вы не можете прикреплять файлы к сообщениям
Вы можете скачивать файлы