Статистика раздачи
Размер:  195 MB   |    Зарегистрирован:  3 месяца 5 дней   |    Скачан:  0 раз

Полного источника не было: Никогда

 
   
 
 

Субурбикон ®

Пол:
Не указан
Стаж:
3 месяца 7 дней
Сообщений:
208

Schiller - Ruhe
Жанр: Trance, Downtempo
Label: What's Up ?!
Catalog#: 561 524-2
Format: CD, Maxi-Single
Country: Germany
Released: 1999
По discogs: http://www.discogs.com/release/30656
Трэклист:
01. Ruhe (Fernseh-Fassung) (3:33)
02. Ruhe (Chill-Out-Fassung) (3:40)
03. Ruhe (Langspiel-Fassung) (5:51)
04. Ruhe (Humate Remix) (9:57)
05. Ruhe (Ayla Remix) (7:13)

Отчет EAC

Exact Audio Copy V0.99 prebeta 4 from 23. January 2008
EAC extraction logfile from 29. May 2009, 9:37
Schiller / Ruhe
Used drive : SONY CD-RW CRX195E1 Adapter: 1 ID: 0
Read mode : Secure
Utilize accurate stream : Yes
Defeat audio cache : Yes
Make use of C2 pointers : No
Read offset correction : 12
Overread into Lead-In and Lead-Out : No
Fill up missing offset samples with silence : Yes
Delete leading and trailing silent blocks : No
Null samples used in CRC calculations : Yes
Used interface : Native Win32 interface for Win NT & 2000
Gap handling : Appended to previous track
Used output format : User Defined Encoder
Selected bitrate : 128 kBit/s
Quality : High
Add ID3 tag : No
Command line compressor : C:\Program Files\Exact Audio Copy\Flac\flac.exe
Additional command line options : -V -8 -T "artist=%a" -T "title=%t" -T "album=%g" -T "date=%y" -T "tracknumber=%n" -T "genre=%m" %s
TOC of the extracted CD
Track | Start | Length | Start sector | End sector
---------------------------------------------------------
1 | 0:00.00 | 3:39.65 | 0 | 16489
2 | 3:39.65 | 3:51.74 | 16490 | 33888
3 | 7:31.64 | 5:57.71 | 33889 | 60734
4 | 13:29.60 | 9:57.12 | 60735 | 105521
5 | 23:26.72 | 7:12.31 | 105522 | 137952
Track 1
Filename C:\EACrips\Schiller - 1999 - Ruhe\01 - Ruhe (Fernseh-Fassung).wav
Pre-gap length 0:00:02.00
Peak level 100.0 %
Track quality 100.0 %
Test CRC 82F8A11E
Copy CRC 82F8A11E
Accurately ripped (confidence 9) [DD8F1D98]
Copy OK
Track 2
Filename C:\EACrips\Schiller - 1999 - Ruhe\02 - Ruhe (Chill-Out-Fassung).wav
Pre-gap length 0:00:00.58
Peak level 97.2 %
Track quality 100.0 %
Test CRC B9F5909E
Copy CRC B9F5909E
Accurately ripped (confidence 9) [C6BEC227]
Copy OK
Track 3
Filename C:\EACrips\Schiller - 1999 - Ruhe\03 - Ruhe (Langspiel-Fassung).wav
Pre-gap length 0:00:00.58
Peak level 99.9 %
Track quality 99.9 %
Test CRC 440E1F6F
Copy CRC 440E1F6F
Accurately ripped (confidence 9) [ABE329D0]
Copy OK
Track 4
Filename C:\EACrips\Schiller - 1999 - Ruhe\04 - Ruhe (Humate Remix).wav
Pre-gap length 0:00:00.58
Peak level 99.9 %
Track quality 100.0 %
Test CRC 51F48B34
Copy CRC 51F48B34
Accurately ripped (confidence 9) [D8A4160A]
Copy OK
Track 5
Filename C:\EACrips\Schiller - 1999 - Ruhe\05 - Ruhe (Ayla Mix).wav
Pre-gap length 0:00:00.60
Peak level 99.9 %
Track quality 100.0 %
Test CRC 28C3390B
Copy CRC 28C3390B
Accurately ripped (confidence 9) [46B56395]
Copy OK
All tracks accurately ripped
No errors occurred
End of status report
Релиз взят с what.cd, выкладывается "как есть"
[cybertorrent.ru].t10879.torrent 
Торрент: Зарегистрирован [ 2018-02-19 23:50 ] · E90865C9E45F85BECB2144BC3DF778CFD5B30BFB

Скачать .torrent

Скачать

16 KB

Статус: проверено
Скачан: 0 раз
Размер: 195 MB
Профиль [ЛС]
Показать сообщения:    

Текущее время: 25-Май 20:26

Часовой пояс: UTC ± 0



Вы не можете начинать темы
Вы не можете отвечать на сообщения
Вы не можете редактировать свои сообщения
Вы не можете удалять свои сообщения
Вы не можете голосовать в опросах
Вы не можете прикреплять файлы к сообщениям
Вы можете скачивать файлы