Статистика раздачи
Размер:  412 MB   |    Зарегистрирован:  2 часа 58 минут   |    Скачан:  0 раз

Полного источника не было: Никогда

Личеров:  1  [  0 KB/s  ]   Подробная статистика пиров
 
   
 
 

formosa ®

Пол:
Не указан
Стаж:
1 день 16 часов
Сообщений:
13

Yoshida Tatsuya & Ishibashi Eiko - Slip Beneath the Distant Tree
Жанр: Avant-Prog, Zeuhl
Год выпуска диска: 2007
Производитель диска: Japan
Аудио кодек: FLAC
Тип рипа: tracks+.cue
Битрейт аудио: lossless
Продолжительность: 00:58:49
Трэклист:
1. Sanctuary
2. Festival of teeth
3. Twilight Furniture
4. Classic Medley
5. Hospital
6. The invention of parachute
7. Time table
8. Across the storm
9. Forgipaska
10. Doctor Gradus ad Pernassum
11. Poet and Peasant
12. Death in a dream
13. As long as he lies perfectly still
14. Planet of reverberation
Доп. информация:

log

X Lossless Decoder version 20091230 (115.2)
XLD extraction logfile from 2010-01-03 12:33:58 -0800
Yoshida Tatsuya and Ishibashi Eiko / Slip Beneath the Distant Tree
Used drive : MATSHITA DVD-R UJ-85J (revision FCQ5)
Use cdparanoia mode : YES (CDParanoia III 10.2 engine)
Disable audio cache : OK for the drive with cache less than 2750KB
Make use of C2 pointers : NO
Read offset correction : 102
Max retry count : 100
TOC of the extracted CD
Track | Start | Length | Start sector | End sector
---------------------------------------------------------
1 | 00:00:00 | 04:26:48 | 0 | 19997
2 | 04:26:48 | 03:15:33 | 19998 | 34655
3 | 07:42:06 | 04:50:36 | 34656 | 56441
4 | 12:32:42 | 01:20:59 | 56442 | 62500
5 | 13:53:26 | 03:24:00 | 62501 | 77800
6 | 17:17:26 | 06:10:26 | 77801 | 105576
7 | 23:27:52 | 04:50:74 | 105577 | 127400
8 | 28:18:51 | 04:17:73 | 127401 | 146748
9 | 32:36:49 | 04:13:70 | 146749 | 165793
10 | 36:50:44 | 02:10:60 | 165794 | 175603
11 | 39:01:29 | 06:56:09 | 175604 | 206812
12 | 45:57:38 | 04:08:55 | 206813 | 225467
13 | 50:06:18 | 03:33:70 | 225468 | 241512
14 | 53:40:13 | 05:17:62 | 241513 | 265349
Track 01
Filename : /Users/toerag/Desktop/Slip Beneath the Distant Tree/01 - Sanctuary.flac
/Users/toerag/Desktop/Slip Beneath the Distant Tree/01 - Sanctuary.mp3
Pre-gap length : 00:02:00
CRC32 hash (test run) : DFFD8553
CRC32 hash : DFFD8553
CRC32 hash (skip zero) : 0F84803D
AccurateRip signature : 5DF2C605
->Track not present in AccurateRip database.
Statistics
Read error : 0
Skipped (treated as error) : 0
Edge jitter error (maybe fixed) : 0
Atom jitter error (maybe fixed) : 0
Drift error (maybe fixed) : 0
Dropped bytes error (maybe fixed) : 0
Duplicated bytes error (maybe fixed) : 0
Inconsistency in error sectors : 0
Track 02
Filename : /Users/toerag/Desktop/Slip Beneath the Distant Tree/02 - Festival of Teeth.flac
/Users/toerag/Desktop/Slip Beneath the Distant Tree/02 - Festival of Teeth.mp3
Pre-gap length : 00:02:00
CRC32 hash (test run) : F6B7E142
CRC32 hash : F6B7E142
CRC32 hash (skip zero) : 4075799E
AccurateRip signature : 786917AF
->Track not present in AccurateRip database.
Statistics
Read error : 0
Skipped (treated as error) : 0
Edge jitter error (maybe fixed) : 0
Atom jitter error (maybe fixed) : 0
Drift error (maybe fixed) : 0
Dropped bytes error (maybe fixed) : 0
Duplicated bytes error (maybe fixed) : 0
Inconsistency in error sectors : 0
Track 03
Filename : /Users/toerag/Desktop/Slip Beneath the Distant Tree/03 - Twilight Furniture.flac
/Users/toerag/Desktop/Slip Beneath the Distant Tree/03 - Twilight Furniture.mp3
Pre-gap length : 00:02:30
CRC32 hash (test run) : 146742E2
CRC32 hash : 146742E2
CRC32 hash (skip zero) : 43721BCF
AccurateRip signature : 6D852614
->Track not present in AccurateRip database.
Statistics
Read error : 0
Skipped (treated as error) : 0
Edge jitter error (maybe fixed) : 0
Atom jitter error (maybe fixed) : 0
Drift error (maybe fixed) : 0
Dropped bytes error (maybe fixed) : 0
Duplicated bytes error (maybe fixed) : 0
Inconsistency in error sectors : 0
Track 04
Filename : /Users/toerag/Desktop/Slip Beneath the Distant Tree/04 - Classic Medley.flac
/Users/toerag/Desktop/Slip Beneath the Distant Tree/04 - Classic Medley.mp3
Pre-gap length : 00:02:00
CRC32 hash (test run) : C0615249
CRC32 hash : C0615249
CRC32 hash (skip zero) : 40C5561D
AccurateRip signature : 8DBB369A
->Track not present in AccurateRip database.
Statistics
Read error : 0
Skipped (treated as error) : 0
Edge jitter error (maybe fixed) : 0
Atom jitter error (maybe fixed) : 0
Drift error (maybe fixed) : 0
Dropped bytes error (maybe fixed) : 0
Duplicated bytes error (maybe fixed) : 0
Inconsistency in error sectors : 0
Track 05
Filename : /Users/toerag/Desktop/Slip Beneath the Distant Tree/05 - Hospital.flac
/Users/toerag/Desktop/Slip Beneath the Distant Tree/05 - Hospital.mp3
Pre-gap length : 00:02:00
CRC32 hash (test run) : 0EF74A77
CRC32 hash : 0EF74A77
CRC32 hash (skip zero) : 355F620D
AccurateRip signature : 34B9AAE1
->Track not present in AccurateRip database.
Statistics
Read error : 0
Skipped (treated as error) : 0
Edge jitter error (maybe fixed) : 0
Atom jitter error (maybe fixed) : 0
Drift error (maybe fixed) : 0
Dropped bytes error (maybe fixed) : 0
Duplicated bytes error (maybe fixed) : 0
Inconsistency in error sectors : 0
Track 06
Filename : /Users/toerag/Desktop/Slip Beneath the Distant Tree/06 - The Invention of Parachute.flac
/Users/toerag/Desktop/Slip Beneath the Distant Tree/06 - The Invention of Parachute.mp3
Pre-gap length : 00:02:01
CRC32 hash (test run) : 7A169D96
CRC32 hash : 7A169D96
CRC32 hash (skip zero) : F6C74C2A
AccurateRip signature : 51584E3C
->Track not present in AccurateRip database.
Statistics
Read error : 0
Skipped (treated as error) : 0
Edge jitter error (maybe fixed) : 0
Atom jitter error (maybe fixed) : 0
Drift error (maybe fixed) : 0
Dropped bytes error (maybe fixed) : 0
Duplicated bytes error (maybe fixed) : 0
Inconsistency in error sectors : 0
Track 07
Filename : /Users/toerag/Desktop/Slip Beneath the Distant Tree/07 - Time Table.flac
/Users/toerag/Desktop/Slip Beneath the Distant Tree/07 - Time Table.mp3
Pre-gap length : 00:01:30
CRC32 hash (test run) : 5E1167A6
CRC32 hash : 5E1167A6
CRC32 hash (skip zero) : 68A92F73
AccurateRip signature : 9DD344A3
->Track not present in AccurateRip database.
Statistics
Read error : 0
Skipped (treated as error) : 0
Edge jitter error (maybe fixed) : 0
Atom jitter error (maybe fixed) : 0
Drift error (maybe fixed) : 0
Dropped bytes error (maybe fixed) : 0
Duplicated bytes error (maybe fixed) : 0
Inconsistency in error sectors : 0
Track 08
Filename : /Users/toerag/Desktop/Slip Beneath the Distant Tree/08 - Across the Storm.flac
/Users/toerag/Desktop/Slip Beneath the Distant Tree/08 - Across the Storm.mp3
Pre-gap length : 00:02:00
CRC32 hash (test run) : 46C1BE9A
CRC32 hash : 46C1BE9A
CRC32 hash (skip zero) : D832C2C2
AccurateRip signature : 38A7D18C
->Track not present in AccurateRip database.
Statistics
Read error : 0
Skipped (treated as error) : 0
Edge jitter error (maybe fixed) : 0
Atom jitter error (maybe fixed) : 0
Drift error (maybe fixed) : 0
Dropped bytes error (maybe fixed) : 0
Duplicated bytes error (maybe fixed) : 0
Inconsistency in error sectors : 0
Track 09
Filename : /Users/toerag/Desktop/Slip Beneath the Distant Tree/09 - Forgipaska.flac
/Users/toerag/Desktop/Slip Beneath the Distant Tree/09 - Forgipaska.mp3
Pre-gap length : 00:02:00
CRC32 hash (test run) : 6CBB801B
CRC32 hash : 6CBB801B
CRC32 hash (skip zero) : 2F92403C
AccurateRip signature : E0D75A62
->Track not present in AccurateRip database.
Statistics
Read error : 0
Skipped (treated as error) : 0
Edge jitter error (maybe fixed) : 0
Atom jitter error (maybe fixed) : 0
Drift error (maybe fixed) : 0
Dropped bytes error (maybe fixed) : 0
Duplicated bytes error (maybe fixed) : 0
Inconsistency in error sectors : 0
Track 10
Filename : /Users/toerag/Desktop/Slip Beneath the Distant Tree/10 - Doctor Gradus ad Pernassum.flac
/Users/toerag/Desktop/Slip Beneath the Distant Tree/10 - Doctor Gradus ad Pernassum.mp3
Pre-gap length : 00:02:00
CRC32 hash (test run) : EE282BD8
CRC32 hash : EE282BD8
CRC32 hash (skip zero) : 6035166C
AccurateRip signature : 605DF796
->Track not present in AccurateRip database.
Statistics
Read error : 0
Skipped (treated as error) : 0
Edge jitter error (maybe fixed) : 0
Atom jitter error (maybe fixed) : 0
Drift error (maybe fixed) : 0
Dropped bytes error (maybe fixed) : 0
Duplicated bytes error (maybe fixed) : 0
Inconsistency in error sectors : 0
Track 11
Filename : /Users/toerag/Desktop/Slip Beneath the Distant Tree/11 - Poet and Peasant.flac
/Users/toerag/Desktop/Slip Beneath the Distant Tree/11 - Poet and Peasant.mp3
Pre-gap length : 00:02:00
CRC32 hash (test run) : 7AA850E1
CRC32 hash : 7AA850E1
CRC32 hash (skip zero) : B412CD50
AccurateRip signature : DEAFA034
->Track not present in AccurateRip database.
Statistics
Read error : 0
Skipped (treated as error) : 0
Edge jitter error (maybe fixed) : 0
Atom jitter error (maybe fixed) : 0
Drift error (maybe fixed) : 0
Dropped bytes error (maybe fixed) : 0
Duplicated bytes error (maybe fixed) : 0
Inconsistency in error sectors : 0
Track 12
Filename : /Users/toerag/Desktop/Slip Beneath the Distant Tree/12 - Death in a Dream.flac
/Users/toerag/Desktop/Slip Beneath the Distant Tree/12 - Death in a Dream.mp3
Pre-gap length : 00:03:00
CRC32 hash (test run) : 13A81F70
CRC32 hash : 13A81F70
CRC32 hash (skip zero) : AFD17163
AccurateRip signature : B94A886E
->Track not present in AccurateRip database.
Statistics
Read error : 0
Skipped (treated as error) : 0
Edge jitter error (maybe fixed) : 0
Atom jitter error (maybe fixed) : 0
Drift error (maybe fixed) : 0
Dropped bytes error (maybe fixed) : 0
Duplicated bytes error (maybe fixed) : 0
Inconsistency in error sectors : 0
Track 13
Filename : /Users/toerag/Desktop/Slip Beneath the Distant Tree/13 - As Long as He Lies Perfectly Still.flac
/Users/toerag/Desktop/Slip Beneath the Distant Tree/13 - As Long as He Lies Perfectly Still.mp3
Pre-gap length : 00:02:00
CRC32 hash (test run) : 92ACB014
CRC32 hash : 92ACB014
CRC32 hash (skip zero) : 9713F7C8
AccurateRip signature : D90C48BD
->Track not present in AccurateRip database.
Statistics
Read error : 0
Skipped (treated as error) : 0
Edge jitter error (maybe fixed) : 0
Atom jitter error (maybe fixed) : 0
Drift error (maybe fixed) : 0
Dropped bytes error (maybe fixed) : 0
Duplicated bytes error (maybe fixed) : 0
Inconsistency in error sectors : 0
Track 14
Filename : /Users/toerag/Desktop/Slip Beneath the Distant Tree/14 - Planet of Reverberation.flac
/Users/toerag/Desktop/Slip Beneath the Distant Tree/14 - Planet of Reverberation.mp3
Pre-gap length : 00:02:00
CRC32 hash (test run) : 9B3A8533
CRC32 hash : 9B3A8533
CRC32 hash (skip zero) : 24C05FCB
AccurateRip signature : 7B2576BC
->Track not present in AccurateRip database.
Statistics
Read error : 0
Skipped (treated as error) : 0
Edge jitter error (maybe fixed) : 0
Atom jitter error (maybe fixed) : 0
Drift error (maybe fixed) : 0
Dropped bytes error (maybe fixed) : 0
Duplicated bytes error (maybe fixed) : 0
Inconsistency in error sectors : 0
No errors occurred
End of status report

Cuesheet

REM DATE 2005
PERFORMER "Yoshida Tatsuya and Ishibashi Eiko"
TITLE "Slip Beneath the Distant Tree"
FILE "01 - Sanctuary.wav" WAVE
TRACK 01 AUDIO
TITLE "Sanctuary"
PERFORMER "Yoshida Tatsuya and Ishibashi Eiko"
INDEX 01 00:00:00
TRACK 02 AUDIO
TITLE "Festival of Teeth"
PERFORMER "Yoshida Tatsuya and Ishibashi Eiko"
INDEX 00 04:24:48
FILE "02 - Festival of Teeth.wav" WAVE
INDEX 01 00:00:00
TRACK 03 AUDIO
TITLE "Twilight Furniture"
PERFORMER "Yoshida Tatsuya and Ishibashi Eiko"
INDEX 00 03:13:03
FILE "03 - Twilight Furniture.wav" WAVE
INDEX 01 00:00:00
TRACK 04 AUDIO
TITLE "Twilight Furniture"
PERFORMER "Yoshida Tatsuya and Ishibashi Eiko"
INDEX 00 04:48:36
FILE "04 - Classic Medley.wav" WAVE
INDEX 01 00:00:00
TRACK 05 AUDIO
TITLE "Hospital"
PERFORMER "Yoshida Tatsuya and Ishibashi Eiko"
INDEX 00 01:18:59
FILE "05 - Hospital.wav" WAVE
INDEX 01 00:00:00
TRACK 06 AUDIO
TITLE "The Invention of Parachute"
PERFORMER "Yoshida Tatsuya and Ishibashi Eiko"
INDEX 00 03:21:74
FILE "06 - The Invention of Parachute.wav" WAVE
INDEX 01 00:00:00
TRACK 07 AUDIO
TITLE "Time Table"
PERFORMER "Yoshida Tatsuya and Ishibashi Eiko"
INDEX 00 06:08:71
FILE "07 - Time Table.wav" WAVE
INDEX 01 00:00:00
TRACK 08 AUDIO
TITLE "Across the Storm"
PERFORMER "Yoshida Tatsuya and Ishibashi Eiko"
INDEX 00 04:48:74
FILE "08 - Across the Storm.wav" WAVE
INDEX 01 00:00:00
TRACK 09 AUDIO
TITLE "Forgipaska"
PERFORMER "Yoshida Tatsuya and Ishibashi Eiko"
INDEX 00 04:15:73
FILE "09 - Forgipaska.wav" WAVE
INDEX 01 00:00:00
TRACK 10 AUDIO
TITLE "Doctor Gradus ad Pernassum"
PERFORMER "Yoshida Tatsuya and Ishibashi Eiko"
INDEX 00 04:11:70
FILE "10 - Doctor Gradus ad Pernassum.wav" WAVE
INDEX 01 00:00:00
TRACK 11 AUDIO
TITLE "Poet and Peasant"
PERFORMER "Yoshida Tatsuya and Ishibashi Eiko"
INDEX 00 02:08:60
FILE "11 - Poet and Peasant.wav" WAVE
INDEX 01 00:00:00
TRACK 12 AUDIO
TITLE "Death in a Dream"
PERFORMER "Yoshida Tatsuya and Ishibashi Eiko"
INDEX 00 06:53:09
FILE "12 - Death in a Dream.wav" WAVE
INDEX 01 00:00:00
TRACK 13 AUDIO
TITLE "As Long as He Lies Perfectly Still"
PERFORMER "Yoshida Tatsuya and Ishibashi Eiko"
INDEX 00 04:06:55
FILE "13 - As Long as He Lies Perfectly Still.wav" WAVE
INDEX 01 00:00:00
TRACK 14 AUDIO
TITLE "Planet of Reverberation"
PERFORMER "Yoshida Tatsuya and Ishibashi Eiko"
INDEX 00 03:31:70
FILE "14 - Planet of Reverberation.wav" WAVE
INDEX 01 00:00:00
Огромная благодарность товарищу Toerag за любезно предоставленный рип.
[cybertorrent.ru].t11346.torrent 
Торрент: Зарегистрирован [ Сегодня, в 02:40 ] · FEF3A4ABF49196FC87A5541C7129A2DF043DD00B

Скачать .torrent

Скачать

18 KB

Статус: проверено
Скачан: 0 раз
Размер: 412 MB
terms.php
Профиль [ЛС]
Показать сообщения:    

Текущее время: 20-Фев 05:38

Часовой пояс: UTC ± 0



Вы не можете начинать темы
Вы не можете отвечать на сообщения
Вы не можете редактировать свои сообщения
Вы не можете удалять свои сообщения
Вы не можете голосовать в опросах
Вы не можете прикреплять файлы к сообщениям
Вы можете скачивать файлы