Статистика раздачи
Размер:  2,17 GB   |    Зарегистрирован:  1 день 3 часа   |    Скачан:  0 раз

Полного источника не было: Никогда

Личеров:  1  [  0 KB/s  ]   Подробная статистика пиров
 
   
 
 

kolobok ®

Пол:
Не указан
Стаж:
3 дня
Сообщений:
53

X ЛетКрокус Сити Холл- Страна:
Жанр: Heavy Metal
Продолжительность: 02:03:48
Год выпуска: 2014 г.
Описание: Запись концерта группы в Крокус Сити Холл (Москва) 1 декабря 2012 года, посвящённого её десятилетию.-Треклист:
01. Интро
02. Жить вопреки
03. Еще повоюем
04. Вавилон
05. Наваждение
06. Я здесь
07. Гламурная птица
08. Власть огня
09. Дыхание последней любви
10. Дыхание тьмы
11. Castlevania
12. Мертвая зона
13. Потерянный рай
14. Грязь
15. Не сейчас
16. Реки времен
17. Ой, то не вечер
18. Призрачный взвод
19. Я свободен!
20. Попурри (Встань, страх преодолей; Тореро; Воля и разум)
Валерий Кипелов — вокал
Вячеслав Молчанов — гитара
Андрей Голованов — гитара
Алексей Харьков — бас-гитара
Александр Манякин — барабаны
Гости концерта:
Сергей Маврин — гитара
Сергей Терентьев — гитара-Источник: собственный рип
Кипелoв • X лeт • Крокус Сити Холл, Blu Ray
Сэмпле-Качество: BDRip
Контейнер: MKV
Видео кодек: H.264
Аудио кодек: AC3
Видео: MPEG-4 AVC / 768*432 / 16:9 / 1874 kbps / 25.0 fps
Аудио #1: AC3 / 448 kbps / 48.0 khz / 6 ch
Аудио #2: AC3 / 192 kbps / 48.0 khz / 2 ch

MI

Общее
Уникальный идентификатор : 236910629004441018116795972246084580346 (0xB23B53D40BF89B3CA9E2B5051C80F3FA)
Полное имя : D:\Video\Kipelov - X Let BDRip.mkv
Формат : Matroska
Версия формата : Version 4 / Version 2
Размер файла : 2,17 Гбайт
Продолжительность : 2 ч. 3 м.
Общий поток : 2515 Кбит/сек
Дата кодирования : UTC 2014-05-27 15:46:52
Программа кодирования : mkvmerge v6.9.1 ('Blue Panther') 32bit built on Apr 18 2014 18:15:44
Библиотека кодирования : libebml v1.3.0 + libmatroska v1.4.1
Видео
Идентификатор : 1
Формат : AVC
Формат/Информация : Advanced Video Codec
Профиль формата : High@L4.1
Параметр CABAC формата : Да
Параметр ReFrames формата : 5 кадров
Идентификатор кодека : V_MPEG4/ISO/AVC
Продолжительность : 2 ч. 3 м.
Битрейт : 1874 Кбит/сек
Ширина : 768 пикселей
Высота : 432 пикселя
Соотношение сторон : 16:9
Режим частоты кадров : Постоянный
Частота кадров : 25,000 кадров/сек
Цветовое пространство : YUV
Субдискретизация насыщенности : 4:2:0
Битовая глубина : 8 бит
Тип развёртки : Прогрессивная
Бит/(Пиксели*Кадры) : 0.226
Размер потока : 1,58 Гбайт (73%)
Библиотека кодирования : x264 core 138 r2358 9e941d1
Настройки программы : cabac=1 / ref=5 / deblock=1:-1:-1 / analyse=0x3:0x113 / me=umh / subme=8 / psy=1 / psy_rd=1.00:0.15 / mixed_ref=1 / me_range=16 / chroma_me=1 / trellis=1 / 8x8dct=1 / cqm=0 / deadzone=21,11 / fast_pskip=1 / chroma_qp_offset=-3 / threads=3 / lookahead_threads=1 / sliced_threads=0 / nr=0 / decimate=1 / interlaced=0 / bluray_compat=0 / constrained_intra=0 / bframes=3 / b_pyramid=2 / b_adapt=2 / b_bias=0 / direct=3 / weightb=1 / open_gop=0 / weightp=2 / keyint=250 / keyint_min=25 / scenecut=40 / intra_refresh=0 / rc_lookahead=50 / rc=2pass / mbtree=1 / bitrate=1874 / ratetol=1.0 / qcomp=0.60 / qpmin=0 / qpmax=69 / qpstep=4 / cplxblur=20.0 / qblur=0.5 / vbv_maxrate=50000 / vbv_bufsize=50000 / nal_hrd=none / ip_ratio=1.40 / aq=1:1.00
Язык : English
Default : Да
Forced : Нет
Аудио #1
Идентификатор : 2
Формат : AC-3
Формат/Информация : Audio Coding 3
Расширение режима : CM (complete main)
Параметр Endianness формата : Big
Идентификатор кодека : A_AC3
Продолжительность : 2 ч. 3 м.
Вид битрейта : Постоянный
Битрейт : 448 Кбит/сек
Каналы : 6 каналов
Расположение каналов : Front: L C R, Side: L R, LFE
Частота : 48,0 КГц
Битовая глубина : 16 бит
Метод сжатия : С потерями
Размер потока : 397 Мбайт (18%)
Default : Да
Forced : Нет
Аудио #2
Идентификатор : 3
Формат : AC-3
Формат/Информация : Audio Coding 3
Расширение режима : CM (complete main)
Параметр Endianness формата : Big
Идентификатор кодека : A_AC3
Продолжительность : 2 ч. 3 м.
Вид битрейта : Постоянный
Битрейт : 192 Кбит/сек
Каналы : 2 канала
Расположение каналов : Front: L R
Частота : 48,0 КГц
Битовая глубина : 16 бит
Метод сжатия : С потерями
Размер потока : 170 Мбайт (8%)
Default : Нет
Forced : Нет
Меню
00:00:00.000 : en:Chapter 01
00:01:37.479 : en:Chapter 02
00:06:17.279 : en:Chapter 03
00:13:24.120 : en:Chapter 04
00:19:30.200 : en:Chapter 05
00:25:43.120 : en:Chapter 06
00:31:37.040 : en:Chapter 07
00:37:52.720 : en:Chapter 08
00:42:58.240 : en:Chapter 09
00:49:29.080 : en:Chapter 10
00:54:53.640 : en:Chapter 11
01:01:42.680 : en:Chapter 12
01:08:25.880 : en:Chapter 13
01:14:46.040 : en:Chapter 14
01:19:36.120 : en:Chapter 15
01:25:10.280 : en:Chapter 16
01:30:21.120 : en:Chapter 17
01:34:44.920 : en:Chapter 18
01:42:17.400 : en:Chapter 19
01:50:36.080 : en:Chapter 20

Скриншоты

[cybertorrent.ru].t13300.torrent 
Торрент: Зарегистрирован [ Вчера, в 12:55 ] · 1C3698BB416249C84D45F7B72A979E0D4E40C49A

Скачать .torrent

Скачать

11 KB

Статус: проверено
Скачан: 0 раз
Размер: 2,17 GB
terms.php
Профиль [ЛС]
Показать сообщения:    

Текущее время: 21-Фев 16:49

Часовой пояс: UTC ± 0



Вы не можете начинать темы
Вы не можете отвечать на сообщения
Вы не можете редактировать свои сообщения
Вы не можете удалять свои сообщения
Вы не можете голосовать в опросах
Вы не можете прикреплять файлы к сообщениям
Вы можете скачивать файлы