Статистика раздачи
Размер:  1,22 GB   |    Зарегистрирован:  20 часов   |    Скачан:  0 раз

Полного источника не было: Никогда

 
   
 
 

mazay ®

Пол:
Не указан
Стаж:
5 дней
Сообщений:
87

(world, ethnic, folk) [cd] va - The Music of Cambodia 1994, Produced by David Parsons, 3cd, FLAC (tracks+.cue), lossless

va - The Music of Cambodia 1994
Жанр:world, ethnic, folk
Год выпуска: 1994
Издатель (лейбл):Celestial Harmonies
Формат: FLAC (tracks+.cue)
Битрейт аудио: lossless
Источник: what.cd

Volume 1 - 9 Gong Gamelan 1993


Volume 1 - 9 Gong Gamelan 1993
Pinpeat Orchestra
01 Sathouka 3'41"
02 Trach Toch 2'16"
03 Kaman Prathom 3'45"
04 Lar Smeur Rou 1'20"
05 Kravnay Chorn Chup 5'58"
06 Pyadeun 3'11"
Taam Ming - Music for Ghosts
07 Sompougn Klay 14'01"
08 Klang Chanat 9'01"
09 Trapeang Pey 4'25"
Srlay Solo
10 Lam 3'28"
Trot Orchestra
11 Somplov 8'58"
12 Lam (Part 1) 5'27"
13 Lam (Part 2) 1'35"
14 Neang Meo 6'52"
total: 01:13:58

.log

Exact Audio Copy V0.99 prebeta 5 from 4. May 2009
EAC extraction logfile from 22. February 2010, 0:25
Various Artists / The Music of Cambodia Volume 1 - 9 Gong Gamelan
Used drive : HL-DT-STDVD-RAM GH40L Adapter: 1 ID: 0
Read mode : Secure
Utilize accurate stream : Yes
Defeat audio cache : Yes
Make use of C2 pointers : No
Read offset correction : 667
Overread into Lead-In and Lead-Out : No
Fill up missing offset samples with silence : Yes
Delete leading and trailing silent blocks : No
Null samples used in CRC calculations : Yes
Used interface : Native Win32 interface for Win NT & 2000
Gap handling : Appended to previous track
Used output format : User Defined Encoder
Selected bitrate : 320 kBit/s
Quality : High
Add ID3 tag : No
Command line compressor : C:\Program Files\Exact Audio Copy\Flac\flac.exe
Additional command line options : -V -8 -T "artist=%a" -T "title=%t" -T "album=%g" -T "date=%y" -T "tracknumber=%n" -T "genre=%m" %s
TOC of the extracted CD
Track | Start | Length | Start sector | End sector
---------------------------------------------------------
1 | 0:00.33 | 3:47.35 | 33 | 17092
2 | 3:47.68 | 2:20.12 | 17093 | 27604
3 | 6:08.05 | 3:49.10 | 27605 | 44789
4 | 9:57.15 | 1:26.15 | 44790 | 51254
5 | 11:23.30 | 6:03.05 | 51255 | 78484
6 | 17:26.35 | 3:14.60 | 78485 | 93094
7 | 20:41.20 | 14:05.28 | 93095 | 156497
8 | 34:46.48 | 9:05.47 | 156498 | 197419
9 | 43:52.20 | 4:30.45 | 197420 | 217714
10 | 48:22.65 | 3:32.20 | 217715 | 233634
11 | 51:55.10 | 9:03.73 | 233635 | 274432
12 | 60:59.08 | 5:31.62 | 274433 | 299319
13 | 66:30.70 | 1:39.15 | 299320 | 306759
14 | 68:10.10 | 6:53.23 | 306760 | 337757
Track 1
Filename The Music of Cambodia\The Music of Cambodia Volume 1 - 1993 - 9 Gong Gamelan [FLAC]\01 Sathouka - Sathouka.wav
Pre-gap length 0:00:02.44
Peak level 69.2 %
Track quality 99.9 %
Test CRC BDF33CD0
Copy CRC BDF33CD0
Track not present in AccurateRip database
Copy OK
Track 2
Filename The Music of Cambodia\The Music of Cambodia Volume 1 - 1993 - 9 Gong Gamelan [FLAC]\02 Trach Toch - Trach Toch.wav
Pre-gap length 0:00:04.13
Peak level 67.8 %
Track quality 100.0 %
Test CRC B99D6BE0
Copy CRC B99D6BE0
Track not present in AccurateRip database
Copy OK
Track 3
Filename The Music of Cambodia\The Music of Cambodia Volume 1 - 1993 - 9 Gong Gamelan [FLAC]\03 Kaman Prathom - Kaman Prathom.wav
Pre-gap length 0:00:03.96
Peak level 67.4 %
Track quality 99.9 %
Test CRC 883F7BF0
Copy CRC 883F7BF0
Track not present in AccurateRip database
Copy OK
Track 4
Filename The Music of Cambodia\The Music of Cambodia Volume 1 - 1993 - 9 Gong Gamelan [FLAC]\04 Lar Smeur Rou - Lar Smeur Rou.wav
Pre-gap length 0:00:03.76
Peak level 66.3 %
Track quality 100.0 %
Test CRC 9D50E62C
Copy CRC 9D50E62C
Track not present in AccurateRip database
Copy OK
Track 5
Filename The Music of Cambodia\The Music of Cambodia Volume 1 - 1993 - 9 Gong Gamelan [FLAC]\05 Kravnay Chorn Chup - Kravnay Chorn Chup.wav
Pre-gap length 0:00:04.96
Peak level 65.8 %
Track quality 100.0 %
Test CRC D61EC57F
Copy CRC D61EC57F
Track not present in AccurateRip database
Copy OK
Track 6
Filename The Music of Cambodia\The Music of Cambodia Volume 1 - 1993 - 9 Gong Gamelan [FLAC]\06 Pyadeun - Pyadeun.wav
Pre-gap length 0:00:04.02
Peak level 70.5 %
Track quality 100.0 %
Test CRC D5D75CB2
Copy CRC D5D75CB2
Track not present in AccurateRip database
Copy OK
Track 7
Filename The Music of Cambodia\The Music of Cambodia Volume 1 - 1993 - 9 Gong Gamelan [FLAC]\07 Sompougn Klay - Sompougn Klay.wav
Pre-gap length 0:00:02.82
Peak level 67.5 %
Track quality 100.0 %
Test CRC 2884C10D
Copy CRC 2884C10D
Track not present in AccurateRip database
Copy OK
Track 8
Filename The Music of Cambodia\The Music of Cambodia Volume 1 - 1993 - 9 Gong Gamelan [FLAC]\08 Klang Chanat - Klang Chanat.wav
Pre-gap length 0:00:03.20
Peak level 66.8 %
Track quality 100.0 %
Test CRC 03D661D1
Copy CRC 03D661D1
Track not present in AccurateRip database
Copy OK
Track 9
Filename The Music of Cambodia\The Music of Cambodia Volume 1 - 1993 - 9 Gong Gamelan [FLAC]\09 Trapeang Ray - Trapeang Ray.wav
Pre-gap length 0:00:03.82
Peak level 63.6 %
Track quality 100.0 %
Test CRC C216B27C
Copy CRC C216B27C
Track not present in AccurateRip database
Copy OK
Track 10
Filename The Music of Cambodia\The Music of Cambodia Volume 1 - 1993 - 9 Gong Gamelan [FLAC]\10 Lam - Lam.wav
Pre-gap length 0:00:04.42
Peak level 32.4 %
Track quality 100.0 %
Test CRC 23112F62
Copy CRC 23112F62
Track not present in AccurateRip database
Copy OK
Track 11
Filename The Music of Cambodia\The Music of Cambodia Volume 1 - 1993 - 9 Gong Gamelan [FLAC]\11 Somplov - Somplov.wav
Pre-gap length 0:00:03.68
Peak level 73.8 %
Track quality 100.0 %
Test CRC DB0EB893
Copy CRC DB0EB893
Track not present in AccurateRip database
Copy OK
Track 12
Filename The Music of Cambodia\The Music of Cambodia Volume 1 - 1993 - 9 Gong Gamelan [FLAC]\12 Lam (Part 1) - Lam (Part 1).wav
Pre-gap length 0:00:04.66
Peak level 72.2 %
Track quality 100.0 %
Test CRC 39D824E1
Copy CRC 39D824E1
Track not present in AccurateRip database
Copy OK
Track 13
Filename The Music of Cambodia\The Music of Cambodia Volume 1 - 1993 - 9 Gong Gamelan [FLAC]\13 Lam (Part 2) - Lam (Part 2).wav
Pre-gap length 0:00:03.49
Peak level 72.4 %
Track quality 100.0 %
Test CRC A07889C4
Copy CRC A07889C4
Track not present in AccurateRip database
Copy OK
Track 14
Filename The Music of Cambodia\The Music of Cambodia Volume 1 - 1993 - 9 Gong Gamelan [FLAC]\14 Neang Meo - Neang Meo.wav
Pre-gap length 0:00:03.68
Peak level 91.1 %
Track quality 100.0 %
Test CRC 5185D0C8
Copy CRC 5185D0C8
Track not present in AccurateRip database
Copy OK
None of the tracks are present in the AccurateRip database
No errors occurred
End of status report

.cue

REM GENRE folk
REM DATE 1993
REM DISCID CC11970E
REM COMMENT "ExactAudioCopy v0.99pb5"
FILE "01 Sathouka - Sathouka.wav" WAVE
TRACK 01 AUDIO
PREGAP 00:00:33
INDEX 01 00:00:00
TRACK 02 AUDIO
INDEX 00 03:43:25
FILE "02 Trach Toch - Trach Toch.wav" WAVE
INDEX 01 00:00:00
TRACK 03 AUDIO
INDEX 00 02:16:15
FILE "03 Kaman Prathom - Kaman Prathom.wav" WAVE
INDEX 01 00:00:00
TRACK 04 AUDIO
INDEX 00 03:45:28
FILE "04 Lar Smeur Rou - Lar Smeur Rou.wav" WAVE
INDEX 01 00:00:00
TRACK 05 AUDIO
INDEX 00 01:21:18
FILE "05 Kravnay Chorn Chup - Kravnay Chorn Chup.wav" WAVE
INDEX 01 00:00:00
TRACK 06 AUDIO
INDEX 00 05:59:03
FILE "06 Pyadeun - Pyadeun.wav" WAVE
INDEX 01 00:00:00
TRACK 07 AUDIO
INDEX 00 03:11:73
FILE "07 Sompougn Klay - Sompougn Klay.wav" WAVE
INDEX 01 00:00:00
TRACK 08 AUDIO
INDEX 00 14:02:13
FILE "08 Klang Chanat - Klang Chanat.wav" WAVE
INDEX 01 00:00:00
TRACK 09 AUDIO
INDEX 00 09:01:60
FILE "09 Trapeang Ray - Trapeang Ray.wav" WAVE
INDEX 01 00:00:00
TRACK 10 AUDIO
INDEX 00 04:26:13
FILE "10 Lam - Lam.wav" WAVE
INDEX 01 00:00:00
TRACK 11 AUDIO
INDEX 00 03:28:44
FILE "11 Somplov - Somplov.wav" WAVE
INDEX 01 00:00:00
TRACK 12 AUDIO
INDEX 00 08:59:23
FILE "12 Lam (Part 1) - Lam (Part 1).wav" WAVE
INDEX 01 00:00:00
TRACK 13 AUDIO
INDEX 00 05:28:25
FILE "13 Lam (Part 2) - Lam (Part 2).wav" WAVE
INDEX 01 00:00:00
TRACK 14 AUDIO
INDEX 00 01:35:39
FILE "14 Neang Meo - Neang Meo.wav" WAVE
INDEX 01 00:00:00

.accurip

[CUETools log; Date: 03/02/16 16:50:31; Version: 2.1.4]
Pregap length 00:00:33.
[CTDB TOCID: m.YEw66nFE6VemLOQMl682XB.AQ-] found.
Track | CTDB Status
1 | (1/1) Accurately ripped
2 | (1/1) Accurately ripped
3 | (1/1) Accurately ripped
4 | (1/1) Accurately ripped
5 | (1/1) Accurately ripped
6 | (1/1) Accurately ripped
7 | (1/1) Accurately ripped
8 | (1/1) Accurately ripped
9 | (1/1) Accurately ripped
10 | (1/1) Accurately ripped
11 | (1/1) Accurately ripped
12 | (1/1) Accurately ripped
13 | (1/1) Accurately ripped
14 | (1/1) Accurately ripped
[AccurateRip ID: 0023a497-018cac15-cc11970e] found.
Track [ CRC | V2 ] Status
01 [376328ed|7209001a] (2+0/2) Accurately ripped
02 [a659186e|a62e2578] (2+0/2) Accurately ripped
03 [4f569f59|8df0638c] (2+0/2) Accurately ripped
04 [4f4bebe5|19203ecf] (2+0/2) Accurately ripped
05 [d4e66488|eba81c01] (2+0/2) Accurately ripped
06 [7d808b82|3b96d815] (2+0/2) Accurately ripped
07 [cd8c1497|28cf64da] (2+0/2) Accurately ripped
08 [2458692f|974f3289] (2+0/2) Accurately ripped
09 [54644821|99a6a350] (2+0/2) Accurately ripped
10 [c19970fa|deede817] (2+0/2) Accurately ripped
11 [9d91a715|183eee32] (2+0/2) Accurately ripped
12 [2e2818c5|b3d477e1] (2+0/2) Accurately ripped
13 [aa51367f|814dc78b] (2+0/2) Accurately ripped
14 [677be583|2084da9f] (2+0/2) Accurately ripped
Offsetted by 667:
01 [73124548] (0/2) No match (V2 was not tested)
02 [0dea7e3f] (0/2) No match (V2 was not tested)
03 [6025cfeb] (0/2) No match (V2 was not tested)
04 [1f3edf74] (0/2) No match (V2 was not tested)
05 [d62687a7] (0/2) No match (V2 was not tested)
06 [2cfea82f] (0/2) No match (V2 was not tested)
07 [42ce8060] (0/2) No match (V2 was not tested)
08 [5044618e] (0/2) No match (V2 was not tested)
09 [a929eb8c] (0/2) No match (V2 was not tested)
10 [076e08d2] (0/2) No match (V2 was not tested)
11 [1b9d6baa] (0/2) No match (V2 was not tested)
12 [8aeaec80] (0/2) No match (V2 was not tested)
13 [638cf3cf] (0/2) No match (V2 was not tested)
14 [aa4d518b] (0/2) No match (V2 was not tested)
Track Peak [ CRC32 ] [W/O NULL] [ LOG ]
-- 91.1 [A53BD2D9] [F8A193C1]
01 69.2 [BDF33CD0] [0B2EADC3] CRC32
02 67.8 [B99D6BE0] [A35CE781] CRC32
03 67.3 [883F7BF0] [59E08C22] CRC32
04 66.3 [9D50E62C] [AB9608C3] CRC32
05 65.8 [D61EC57F] [5FAC1493] CRC32
06 70.5 [D5D75CB2] [7DD12EB5] CRC32
07 67.5 [2884C10D] [ADEEB70C] CRC32
08 66.8 [03D661D1] [AB9EE31C] CRC32
09 63.6 [C216B27C] [AA5780FB] CRC32
10 32.4 [23112F62] [A46D7317] CRC32
11 73.8 [DB0EB893] [945307C7] CRC32
12 72.2 [39D824E1] [2CED1D1B] CRC32
13 72.4 [A07889C4] [CB50CE6E] CRC32
14 91.1 [5185D0C8] [6B3750A6] CRC32

Volume 2 - Royal Court Music 1994


Volume 2 - Royal Court Music 1994
The Pinpeat Orchestra
01 Sathouka 3'51"
02 Trk Toch 2'28""
03 Keak Borechet 2'00"
04 Mea Haarit 1'59"
05 Pream Keap Prurven 2'02"
06 Dance Medley 13'42"
07 Dance Medley 9'34"
The Mahori Orchestra
08 Laang Preah Poun Leah 2'20"
09 Tombaan 3'37"
10 Khmer Chroot Srau 2'10"
11 Sat Mea Haori 3'38"
12 Baaray Kuul 2'27"
13 Sontheuk Pkor Kraom 3'40"
14 Undae Traw Kuan 2'19"
15 Trorpean Piey 3'39"
Arak Music
16 Homrong 3'00"
17 Craen 1'57"
18 Ni Maan 2'09"
19 Smaon 2'04"
Solo Pieces
20 Kiaang Chak 1'56"
21 Bamphee 1'54"
22 Rey 1'01"
23 Surin Knon Phnom 1'45"
24 Teak Domreay or Bang Koksheng 1'43"
total: 01:12:44

.log

Exact Audio Copy V0.99 prebeta 5 from 4. May 2009
EAC extraction logfile from 22. February 2010, 7:33
The Music of Cambodia Volume 2 / Royal Court Music
Used drive : HL-DT-STDVD-RAM GH40L Adapter: 1 ID: 0
Read mode : Secure
Utilize accurate stream : Yes
Defeat audio cache : Yes
Make use of C2 pointers : No
Read offset correction : 667
Overread into Lead-In and Lead-Out : No
Fill up missing offset samples with silence : Yes
Delete leading and trailing silent blocks : No
Null samples used in CRC calculations : Yes
Used interface : Native Win32 interface for Win NT & 2000
Gap handling : Appended to previous track
Used output format : User Defined Encoder
Selected bitrate : 320 kBit/s
Quality : High
Add ID3 tag : No
Command line compressor : C:\Program Files\Exact Audio Copy\Flac\flac.exe
Additional command line options : -V -8 -T "artist=%a" -T "title=%t" -T "album=%g" -T "date=%y" -T "tracknumber=%n" -T "genre=%m" %s
TOC of the extracted CD
Track | Start | Length | Start sector | End sector
---------------------------------------------------------
1 | 0:00.33 | 3:56.02 | 33 | 17734
2 | 3:56.35 | 2:31.73 | 17735 | 29132
3 | 6:28.33 | 2:03.57 | 29133 | 38414
4 | 8:32.15 | 2:02.18 | 38415 | 47582
5 | 10:34.33 | 2:06.15 | 47583 | 57047
6 | 12:40.48 | 13:45.50 | 57048 | 118972
7 | 26:26.23 | 9:38.47 | 118973 | 162369
8 | 36:04.70 | 2:23.48 | 162370 | 173142
9 | 38:28.43 | 3:40.57 | 173143 | 189699
10 | 42:09.25 | 2:13.73 | 189700 | 199747
11 | 44:23.23 | 3:41.10 | 199748 | 216332
12 | 48:04.33 | 2:30.35 | 216333 | 227617
13 | 50:34.68 | 3:43.25 | 227618 | 244367
14 | 54:18.18 | 2:24.17 | 244368 | 255184
15 | 56:42.35 | 3:42.33 | 255185 | 271867
16 | 60:24.68 | 3:04.00 | 271868 | 285667
17 | 63:28.68 | 2:00.30 | 285668 | 294697
18 | 65:29.23 | 2:12.55 | 294698 | 304652
19 | 67:42.03 | 2:07.32 | 304653 | 314209
20 | 69:49.35 | 2:00.20 | 314210 | 323229
21 | 71:49.55 | 1:57.73 | 323230 | 332077
22 | 73:47.53 | 1:05.12 | 332078 | 336964
23 | 74:52.65 | 1:48.53 | 336965 | 345117
24 | 76:41.43 | 1:43.65 | 345118 | 352907
Track 1
Filename The Music of Cambodia\The Music of Cambodia Volume 2 - 1994 - Royal Court Music [FLAC]\01 The Pinpeat Orchestra - Sathouka.wav
Pre-gap length 0:00:02.44
Peak level 93.9 %
Track quality 100.0 %
Test CRC 73BD12D7
Copy CRC 73BD12D7
Cannot be verified as accurate (confidence 2) [D90D97A6], AccurateRip returned [13299FDF]
Copy OK
Track 2
Filename The Music of Cambodia\The Music of Cambodia Volume 2 - 1994 - Royal Court Music [FLAC]\02 The Pinpeat Orchestra - Trak Toch.wav
Pre-gap length 0:00:03.40
Peak level 96.3 %
Track quality 100.0 %
Test CRC 041077EA
Copy CRC 041077EA
Cannot be verified as accurate (confidence 2) [60597B61], AccurateRip returned [5461F80E]
Copy OK
Track 3
Filename The Music of Cambodia\The Music of Cambodia Volume 2 - 1994 - Royal Court Music [FLAC]\03 The Pinpeat Orchestra - Keak Borechet.wav
Pre-gap length 0:00:03.00
Peak level 94.1 %
Track quality 100.0 %
Test CRC D97193BD
Copy CRC D97193BD
Cannot be verified as accurate (confidence 2) [714E937E], AccurateRip returned [B89CFE6D]
Copy OK
Track 4
Filename The Music of Cambodia\The Music of Cambodia Volume 2 - 1994 - Royal Court Music [FLAC]\04 The Pinpeat Orchestra - Mea Haarit.wav
Pre-gap length 0:00:02.76
Peak level 81.5 %
Track quality 100.0 %
Test CRC A6B52A18
Copy CRC A6B52A18
Cannot be verified as accurate (confidence 2) [8090C49D], AccurateRip returned [9DB6B591]
Copy OK
Track 5
Filename The Music of Cambodia\The Music of Cambodia Volume 2 - 1994 - Royal Court Music [FLAC]\05 The Pinpeat Orchestra - Pream Keap Prurven.wav
Pre-gap length 0:00:02.00
Peak level 96.4 %
Track quality 100.0 %
Test CRC 31E7BFAE
Copy CRC 31E7BFAE
Cannot be verified as accurate (confidence 2) [BE537114], AccurateRip returned [D5ED5EB8]
Copy OK
Track 6
Filename The Music of Cambodia\The Music of Cambodia Volume 2 - 1994 - Royal Court Music [FLAC]\06 The Pinpeat Orchestra - Dance Medley.wav
Pre-gap length 0:00:03.20
Peak level 96.1 %
Track quality 100.0 %
Test CRC 40342B14
Copy CRC 40342B14
Cannot be verified as accurate (confidence 2) [13AEFC10], AccurateRip returned [1C0F3AB3]
Copy OK
Track 7
Filename The Music of Cambodia\The Music of Cambodia Volume 2 - 1994 - Royal Court Music [FLAC]\07 The Pinpeat Orchestra - Dance Medley.wav
Pre-gap length 0:00:02.86
Peak level 93.2 %
Track quality 100.0 %
Test CRC 50CB0CC4
Copy CRC 50CB0CC4
Cannot be verified as accurate (confidence 2) [85A783DE], AccurateRip returned [D5F4023A]
Copy OK
Track 8
Filename The Music of Cambodia\The Music of Cambodia Volume 2 - 1994 - Royal Court Music [FLAC]\08 The Mahori Orchestra - Laang Preah Poun Leah.wav
Pre-gap length 0:00:03.49
Peak level 92.3 %
Track quality 100.0 %
Test CRC E8EFCE1B
Copy CRC E8EFCE1B
Cannot be verified as accurate (confidence 2) [94336D1E], AccurateRip returned [B96BA207]
Copy OK
Track 9
Filename The Music of Cambodia\The Music of Cambodia Volume 2 - 1994 - Royal Court Music [FLAC]\09 The Mahori Orchestra - Tombaan.wav
Pre-gap length 0:00:03.13
Peak level 92.4 %
Track quality 100.0 %
Test CRC F6900F5B
Copy CRC F6900F5B
Cannot be verified as accurate (confidence 2) [177AE7E4], AccurateRip returned [C59A2559]
Copy OK
Track 10
Filename The Music of Cambodia\The Music of Cambodia Volume 2 - 1994 - Royal Court Music [FLAC]\10 The Mahori Orchestra - Khmeer Chroot Srau.wav
Pre-gap length 0:00:02.89
Peak level 86.5 %
Track quality 100.0 %
Test CRC F8180FD0
Copy CRC F8180FD0
Cannot be verified as accurate (confidence 2) [6FAB1F72], AccurateRip returned [D80894D6]
Copy OK
Track 11
Filename The Music of Cambodia\The Music of Cambodia Volume 2 - 1994 - Royal Court Music [FLAC]\11 The Mahori Orchestra - Sat Mea Haori.wav
Pre-gap length 0:00:02.86
Peak level 83.1 %
Track quality 99.9 %
Test CRC 16FD2B9F
Copy CRC 16FD2B9F
Cannot be verified as accurate (confidence 2) [13E57B3D], AccurateRip returned [3B7A9448]
Copy OK
Track 12
Filename The Music of Cambodia\The Music of Cambodia Volume 2 - 1994 - Royal Court Music [FLAC]\12 The Mahori Orchestra - Baaray Kuul.wav
Pre-gap length 0:00:02.50
Peak level 78.0 %
Track quality 100.0 %
Test CRC 5E27A20F
Copy CRC 5E27A20F
Cannot be verified as accurate (confidence 2) [16ECAB8F], AccurateRip returned [209AAB1F]
Copy OK
Track 13
Filename The Music of Cambodia\The Music of Cambodia Volume 2 - 1994 - Royal Court Music [FLAC]\13 The Mahori Orchestra - Sontheuk Pkor Kraom.wav
Pre-gap length 0:00:02.46
Peak level 93.4 %
Track quality 100.0 %
Test CRC F823BB00
Copy CRC F823BB00
Cannot be verified as accurate (confidence 2) [927ABC96], AccurateRip returned [80430E57]
Copy OK
Track 14
Filename The Music of Cambodia\The Music of Cambodia Volume 2 - 1994 - Royal Court Music [FLAC]\14 The Mahori Orchestra - Undae Traw Kuan.wav
Pre-gap length 0:00:02.80
Peak level 85.9 %
Track quality 100.0 %
Test CRC 371A2375
Copy CRC 371A2375
Cannot be verified as accurate (confidence 2) [A10C7955], AccurateRip returned [878A78E3]
Copy OK
Track 15
Filename The Music of Cambodia\The Music of Cambodia Volume 2 - 1994 - Royal Court Music [FLAC]\15 The Mahori Orchestra - Trorpean Piey.wav
Pre-gap length 0:00:04.02
Peak level 83.3 %
Track quality 100.0 %
Test CRC EEFA9A65
Copy CRC EEFA9A65
Cannot be verified as accurate (confidence 2) [4736B420], AccurateRip returned [8D00C4F0]
Copy OK
Track 16
Filename The Music of Cambodia\The Music of Cambodia Volume 2 - 1994 - Royal Court Music [FLAC]\16 Arak Music - Homrong.wav
Pre-gap length 0:00:02.46
Peak level 97.5 %
Track quality 100.0 %
Test CRC AA7FC8F5
Copy CRC AA7FC8F5
Cannot be verified as accurate (confidence 2) [0F0C99C0], AccurateRip returned [7EF78B82]
Copy OK
Track 17
Filename The Music of Cambodia\The Music of Cambodia Volume 2 - 1994 - Royal Court Music [FLAC]\17 Arak Music - Craen.wav
Pre-gap length 0:00:03.46
Peak level 77.5 %
Track quality 100.0 %
Test CRC AE2A2FD4
Copy CRC AE2A2FD4
Cannot be verified as accurate (confidence 2) [B899F301], AccurateRip returned [A3E53773]
Copy OK
Track 18
Filename The Music of Cambodia\The Music of Cambodia Volume 2 - 1994 - Royal Court Music [FLAC]\18 Arak Music - Ni Maan.wav
Pre-gap length 0:00:02.86
Peak level 76.0 %
Track quality 100.0 %
Test CRC 5F0C03D6
Copy CRC 5F0C03D6
Cannot be verified as accurate (confidence 2) [7FCC6E58], AccurateRip returned [69160F54]
Copy OK
Track 19
Filename The Music of Cambodia\The Music of Cambodia Volume 2 - 1994 - Royal Court Music [FLAC]\19 Arak Music - Smaon.wav
Pre-gap length 0:00:02.60
Peak level 95.5 %
Track quality 100.0 %
Test CRC 0F668055
Copy CRC 0F668055
Cannot be verified as accurate (confidence 2) [89C56CEB], AccurateRip returned [6389D933]
Copy OK
Track 20
Filename The Music of Cambodia\The Music of Cambodia Volume 2 - 1994 - Royal Court Music [FLAC]\20 Solo Pieces - Kiaang Chak.wav
Pre-gap length 0:00:03.02
Peak level 93.8 %
Track quality 100.0 %
Test CRC C0C42AB7
Copy CRC C0C42AB7
Cannot be verified as accurate (confidence 2) [B2A3866B], AccurateRip returned [2BBAEC78]
Copy OK
Track 21
Filename The Music of Cambodia\The Music of Cambodia Volume 2 - 1994 - Royal Court Music [FLAC]\21 Solo Pieces - Bamphee.wav
Pre-gap length 0:00:03.29
Peak level 63.3 %
Track quality 100.0 %
Test CRC F492F013
Copy CRC F492F013
Cannot be verified as accurate (confidence 2) [CD3B51FF], AccurateRip returned [D3594043]
Copy OK
Track 22
Filename The Music of Cambodia\The Music of Cambodia Volume 2 - 1994 - Royal Court Music [FLAC]\22 Solo Pieces - Rey.wav
Pre-gap length 0:00:03.26
Peak level 35.0 %
Track quality 100.0 %
Test CRC 1EC63706
Copy CRC 1EC63706
Cannot be verified as accurate (confidence 2) [5D9B8EFC], AccurateRip returned [115B3908]
Copy OK
Track 23
Filename The Music of Cambodia\The Music of Cambodia Volume 2 - 1994 - Royal Court Music [FLAC]\23 Solo Pieces - Surin Knon Phnom.wav
Pre-gap length 0:00:03.42
Peak level 36.5 %
Track quality 100.0 %
Test CRC 5A0C8B38
Copy CRC 5A0C8B38
Track not present in AccurateRip database
Copy OK
Track 24
Filename The Music of Cambodia\The Music of Cambodia Volume 2 - 1994 - Royal Court Music [FLAC]\24 Solo Pieces - Teak Domreay or Bang Koksheng.wav
Pre-gap length 0:00:03.13
Peak level 42.0 %
Track quality 100.0 %
Test CRC 39B84D1D
Copy CRC 39B84D1D
Cannot be verified as accurate (confidence 2) [5DFEFC5E], AccurateRip returned [6F24C30F]
Copy OK
23 track(s) could not be verified as accurate
1 track(s) not present in the AccurateRip database
No tracks could be verified as accurate
You may have a different pressing from the one(s) in the database
No errors occurred
End of status report

.cue

REM GENRE folk
REM DATE 1994
REM DISCID 4F126118
REM COMMENT "ExactAudioCopy v0.99pb5"
FILE "01 The Pinpeat Orchestra - Sathouka.wav" WAVE
TRACK 01 AUDIO
PREGAP 00:00:33
INDEX 01 00:00:00
TRACK 02 AUDIO
INDEX 00 03:52:47
FILE "02 The Pinpeat Orchestra - Trak Toch.wav" WAVE
INDEX 01 00:00:00
TRACK 03 AUDIO
INDEX 00 02:28:73
FILE "03 The Pinpeat Orchestra - Keak Borechet.wav" WAVE
INDEX 01 00:00:00
TRACK 04 AUDIO
INDEX 00 02:01:00
FILE "04 The Pinpeat Orchestra - Mea Haarit.wav" WAVE
INDEX 01 00:00:00
TRACK 05 AUDIO
INDEX 00 02:00:18
FILE "05 The Pinpeat Orchestra - Pream Keap Prurven.wav" WAVE
INDEX 01 00:00:00
TRACK 06 AUDIO
INDEX 00 02:03:00
FILE "06 The Pinpeat Orchestra - Dance Medley.wav" WAVE
INDEX 01 00:00:00
TRACK 07 AUDIO
INDEX 00 13:42:60
FILE "07 The Pinpeat Orchestra - Dance Medley.wav" WAVE
INDEX 01 00:00:00
TRACK 08 AUDIO
INDEX 00 09:35:10
FILE "08 The Mahori Orchestra - Laang Preah Poun Leah.wav" WAVE
INDEX 01 00:00:00
TRACK 09 AUDIO
INDEX 00 02:20:38
FILE "09 The Mahori Orchestra - Tombaan.wav" WAVE
INDEX 01 00:00:00
TRACK 10 AUDIO
INDEX 00 03:37:65
FILE "10 The Mahori Orchestra - Khmeer Chroot Srau.wav" WAVE
INDEX 01 00:00:00
TRACK 11 AUDIO
INDEX 00 02:11:08
FILE "11 The Mahori Orchestra - Sat Mea Haori.wav" WAVE
INDEX 01 00:00:00
TRACK 12 AUDIO
INDEX 00 03:38:47
FILE "12 The Mahori Orchestra - Baaray Kuul.wav" WAVE
INDEX 01 00:00:00
TRACK 13 AUDIO
INDEX 00 02:28:00
FILE "13 The Mahori Orchestra - Sontheuk Pkor Kraom.wav" WAVE
INDEX 01 00:00:00
TRACK 14 AUDIO
INDEX 00 03:40:40
FILE "14 The Mahori Orchestra - Undae Traw Kuan.wav" WAVE
INDEX 01 00:00:00
TRACK 15 AUDIO
INDEX 00 02:20:15
FILE "15 The Mahori Orchestra - Trorpean Piey.wav" WAVE
INDEX 01 00:00:00
TRACK 16 AUDIO
INDEX 00 03:39:73
FILE "16 Arak Music - Homrong.wav" WAVE
INDEX 01 00:00:00
TRACK 17 AUDIO
INDEX 00 03:00:40
FILE "17 Arak Music - Craen.wav" WAVE
INDEX 01 00:00:00
TRACK 18 AUDIO
INDEX 00 01:57:40
FILE "18 Arak Music - Ni Maan.wav" WAVE
INDEX 01 00:00:00
TRACK 19 AUDIO
INDEX 00 02:10:10
FILE "19 Arak Music - Smaon.wav" WAVE
INDEX 01 00:00:00
TRACK 20 AUDIO
INDEX 00 02:04:30
FILE "20 Solo Pieces - Kiaang Chak.wav" WAVE
INDEX 01 00:00:00
TRACK 21 AUDIO
INDEX 00 01:56:73
FILE "21 Solo Pieces - Bamphee.wav" WAVE
INDEX 01 00:00:00
TRACK 22 AUDIO
INDEX 00 01:54:53
FILE "22 Solo Pieces - Rey.wav" WAVE
INDEX 01 00:00:00
TRACK 23 AUDIO
INDEX 00 01:01:55
FILE "23 Solo Pieces - Surin Knon Phnom.wav" WAVE
INDEX 01 00:00:00
TRACK 24 AUDIO
INDEX 00 01:45:43
FILE "24 Solo Pieces - Teak Domreay or Bang Koksheng.wav" WAVE
INDEX 01 00:00:00

.accurip

[CUETools log; Date: 03/02/16 16:51:34; Version: 2.1.4]
Pregap length 00:00:33.
[CTDB TOCID: rdT4NiSLoARxenzg.H_qmy2ICHo-] found.
Track | CTDB Status
1 | (1/1) Accurately ripped
2 | (1/1) Accurately ripped
3 | (1/1) Accurately ripped
4 | (1/1) Accurately ripped
5 | (1/1) Accurately ripped
6 | (1/1) Accurately ripped
7 | (1/1) Accurately ripped
8 | (1/1) Accurately ripped
9 | (1/1) Accurately ripped
10 | (1/1) Accurately ripped
11 | (1/1) Accurately ripped
12 | (1/1) Accurately ripped
13 | (1/1) Accurately ripped
14 | (1/1) Accurately ripped
15 | (1/1) Accurately ripped
16 | (1/1) Accurately ripped
17 | (1/1) Accurately ripped
18 | (1/1) Accurately ripped
19 | (1/1) Accurately ripped
20 | (1/1) Accurately ripped
21 | (1/1) Accurately ripped
22 | (1/1) Accurately ripped
23 | (1/1) Accurately ripped
24 | (1/1) Accurately ripped
[AccurateRip ID: 004e695d-052f2ca0-4f126118] found.
Track [ CRC | V2 ] Status
01 [d90d97a6|6e2af7dc] (0+0/5) No match
02 [60597b61|792c7fe7] (0+0/5) No match
03 [714e937e|e2af229c] (0+0/5) No match
04 [8090c49d|d539ab5b] (0+0/5) No match
05 [be537114|2b9675b4] (0+0/5) No match
06 [13aefc10|eadae9f4] (0+0/5) No match
07 [85a783de|414897ea] (0+0/5) No match
08 [94336d1e|10d5b28c] (0+0/5) No match
09 [177ae7e4|d8bec34d] (0+0/5) No match
10 [6fab1f72|f260a4c7] (0+0/5) No match
11 [13e57b3d|e4967d94] (0+0/5) No match
12 [16ecab8f|24cfd45a] (0+0/5) No match
13 [927abc96|ca5b62d9] (0+0/5) No match
14 [a10c7955|f031dc17] (0+0/5) No match
15 [4736b420|298a301f] (0+0/5) No match
16 [0f0c99c0|a8e9f5aa] (0+0/5) No match
17 [b899f301|9c3ff1d7] (0+0/5) No match
18 [7fcc6e58|1fc0c7e5] (0+0/5) No match
19 [89c56ceb|43f2c31b] (0+0/5) No match
20 [b2a3866b|76ec8912] (0+0/5) No match
21 [cd3b51ff|d773efd9] (0+0/5) No match
22 [5d9b8efc|7f48cf30] (0+0/5) No match
23 [b04e0b95|92600511] (0+0/4) No match
24 [5dfefc5e|a28c6a68] (0+0/5) No match
Offsetted by 669:
01 [13299fdf] (3/5) Accurately ripped
02 [5461f80e] (3/5) Accurately ripped
03 [b89cfe6d] (3/5) Accurately ripped
04 [9db6b591] (3/5) Accurately ripped
05 [d5ed5eb8] (3/5) Accurately ripped
06 [1c0f3ab3] (3/5) Accurately ripped
07 [d5f4023a] (3/5) Accurately ripped
08 [b96ba207] (3/5) Accurately ripped
09 [c59a2559] (3/5) Accurately ripped
10 [d80894d6] (3/5) Accurately ripped
11 [3b7a9448] (3/5) Accurately ripped
12 [209aab1f] (3/5) Accurately ripped
13 [80430e57] (3/5) Accurately ripped
14 [878a78e3] (3/5) Accurately ripped
15 [8d00c4f0] (3/5) Accurately ripped
16 [7ef78b82] (3/5) Accurately ripped
17 [a3e53773] (3/5) Accurately ripped
18 [69160f54] (3/5) Accurately ripped
19 [6389d933] (3/5) Accurately ripped
20 [2bbaec78] (3/5) Accurately ripped
21 [d3594043] (3/5) Accurately ripped
22 [115b3908] (3/5) Accurately ripped
23 [fccf37ee] (2/4) Accurately ripped
24 [6f24c30f] (3/5) Accurately ripped
Track Peak [ CRC32 ] [W/O NULL] [ LOG ]
-- 97.5 [304FE396] [75CFF3C7]
01 93.9 [73BD12D7] [7F18BE35] CRC32
02 96.3 [041077EA] [5F05B041] CRC32
03 94.1 [D97193BD] [E795913A] CRC32
04 81.5 [A6B52A18] [3E86BDFE] CRC32
05 96.4 [31E7BFAE] [78A98469] CRC32
06 96.1 [40342B14] [ED4B690F] CRC32
07 93.2 [50CB0CC4] [C9E4A712] CRC32
08 92.2 [E8EFCE1B] [20C9DE8D] CRC32
09 92.4 [F6900F5B] [DF7E4AB3] CRC32
10 86.5 [F8180FD0] [81D964FA] CRC32
11 83.1 [16FD2B9F] [A588C83B] CRC32
12 78.0 [5E27A20F] [83F92A7D] CRC32
13 93.4 [F823BB00] [089524A5] CRC32
14 85.9 [371A2375] [4F0B32B0] CRC32
15 83.3 [EEFA9A65] [4E3F3CB1] CRC32
16 97.5 [AA7FC8F5] [C9640BA9] CRC32
17 77.5 [AE2A2FD4] [42ADD908] CRC32
18 76.0 [5F0C03D6] [ED470E93] CRC32
19 95.5 [0F668055] [1864A467] CRC32
20 93.8 [C0C42AB7] [4CCF04A7] CRC32
21 63.3 [F492F013] [191F42B5] CRC32
22 35.0 [1EC63706] [A3574521] CRC32
23 36.5 [5A0C8B38] [EF7FC67A] CRC32
24 42.0 [39B84D1D] [888979F0] CRC32

Volume 3 - Solo Instrumental Music 1994


Volume 3 - Solo Instrumental Music 1994
01 Punleu Prey Viel 2'33"
02 Yol & Bra Chab 2'59"
03 Phat Cheay 11'30"
04 Sam Pov Thay 7'26"
05 Phat Cheay 6'48"
06 Khlaong Thom 8'44"
07 Sam Pong 3'36"
08 Ta Uk/"Grandfather (or Uncle) Uk" 7'00"
09 Sam Pong 5'33"
10 Lom Ang Chhnong 4'06"
11 Sorin Khnang Phnom 3'31"
12 Lom Neang 4'06"
13 Bam Pe & Band Kong Kha'ek 5'02"
total: 01:00:15

.log

Exact Audio Copy V0.99 prebeta 5 from 4. May 2009
EAC extraction logfile from 22. February 2010, 8:43
The Music of Cambodia / The Music of Cambodia Volume 3 - Solo Instrumental Music
Used drive : HL-DT-STDVD-RAM GH40L Adapter: 1 ID: 0
Read mode : Secure
Utilize accurate stream : Yes
Defeat audio cache : Yes
Make use of C2 pointers : No
Read offset correction : 667
Overread into Lead-In and Lead-Out : No
Fill up missing offset samples with silence : Yes
Delete leading and trailing silent blocks : No
Null samples used in CRC calculations : Yes
Used interface : Native Win32 interface for Win NT & 2000
Gap handling : Appended to previous track
Used output format : User Defined Encoder
Selected bitrate : 320 kBit/s
Quality : High
Add ID3 tag : No
Command line compressor : C:\Program Files\Exact Audio Copy\Flac\flac.exe
Additional command line options : -V -8 -T "artist=%a" -T "title=%t" -T "album=%g" -T "date=%y" -T "tracknumber=%n" -T "genre=%m" %s
TOC of the extracted CD
Track | Start | Length | Start sector | End sector
---------------------------------------------------------
1 | 0:00.33 | 2:38.00 | 33 | 11882
2 | 2:38.33 | 3:04.00 | 11883 | 25682
3 | 5:42.33 | 11:34.00 | 25683 | 77732
4 | 17:16.33 | 7:31.00 | 77733 | 111557
5 | 24:47.33 | 6:53.00 | 111558 | 142532
6 | 31:40.33 | 8:50.00 | 142533 | 182282
7 | 40:30.33 | 3:42.00 | 182283 | 198932
8 | 44:12.33 | 7:06.00 | 198933 | 230882
9 | 51:18.33 | 5:37.00 | 230883 | 256157
10 | 56:55.33 | 4:10.00 | 256158 | 274907
11 | 61:05.33 | 3:37.00 | 274908 | 291182
12 | 64:42.33 | 4:10.37 | 291183 | 309969
13 | 68:52.70 | 5:01.63 | 309970 | 332607
Track 1
Filename The Music of Cambodia\The Music of Cambodia Volume 3 - 1994 - Solo Instrumental Music [FLAC]\01 Punleu Prey Viel.wav
Pre-gap length 0:00:02.44
Peak level 33.2 %
Track quality 100.0 %
Test CRC 1515C45A
Copy CRC 1515C45A
Accurately ripped (confidence 2) [38F9BE1F]
Copy OK
Track 2
Filename The Music of Cambodia\The Music of Cambodia Volume 3 - 1994 - Solo Instrumental Music [FLAC]\02 Yol & Bra Chab.wav
Pre-gap length 0:00:04.66
Peak level 30.5 %
Track quality 100.0 %
Test CRC E07228DF
Copy CRC E07228DF
Accurately ripped (confidence 2) [8AA26F12]
Copy OK
Track 3
Filename The Music of Cambodia\The Music of Cambodia Volume 3 - 1994 - Solo Instrumental Music [FLAC]\03 Phat Cheay.wav
Pre-gap length 0:00:04.66
Peak level 89.2 %
Track quality 99.9 %
Test CRC FA5C7201
Copy CRC FA5C7201
Accurately ripped (confidence 2) [6F014D6B]
Copy OK
Track 4
Filename The Music of Cambodia\The Music of Cambodia Volume 3 - 1994 - Solo Instrumental Music [FLAC]\04 Sam Pov Thay.wav
Pre-gap length 0:00:03.66
Peak level 56.6 %
Track quality 100.0 %
Test CRC 6734C64A
Copy CRC 6734C64A
Accurately ripped (confidence 2) [509032E9]
Copy OK
Track 5
Filename The Music of Cambodia\The Music of Cambodia Volume 3 - 1994 - Solo Instrumental Music [FLAC]\05 Phat Cheay.wav
Pre-gap length 0:00:04.66
Peak level 100.0 %
Track quality 100.0 %
Test CRC 6544AF61
Copy CRC 6544AF61
Accurately ripped (confidence 2) [8E54DB86]
Copy OK
Track 6
Filename The Music of Cambodia\The Music of Cambodia Volume 3 - 1994 - Solo Instrumental Music [FLAC]\06 Khlaong Thom.wav
Pre-gap length 0:00:04.66
Peak level 28.0 %
Track quality 100.0 %
Test CRC 50BB6D78
Copy CRC 50BB6D78
Accurately ripped (confidence 2) [6F673E0A]
Copy OK
Track 7
Filename The Music of Cambodia\The Music of Cambodia Volume 3 - 1994 - Solo Instrumental Music [FLAC]\07 Sam Pong.wav
Pre-gap length 0:00:05.66
Peak level 78.4 %
Track quality 100.0 %
Test CRC BA470EE3
Copy CRC BA470EE3
Accurately ripped (confidence 2) [74217C6F]
Copy OK
Track 8
Filename The Music of Cambodia\The Music of Cambodia Volume 3 - 1994 - Solo Instrumental Music [FLAC]\08 Ta Uk [Grandfather (or Uncle) Uk].wav
Pre-gap length 0:00:05.40
Peak level 93.4 %
Track quality 99.9 %
Test CRC 757B65D1
Copy CRC 757B65D1
Accurately ripped (confidence 2) [8618B471]
Copy OK
Track 9
Filename The Music of Cambodia\The Music of Cambodia Volume 3 - 1994 - Solo Instrumental Music [FLAC]\09 Sam Pong.wav
Pre-gap length 0:00:05.66
Peak level 50.3 %
Track quality 100.0 %
Test CRC 4CCE1521
Copy CRC 4CCE1521
Accurately ripped (confidence 2) [ED781EEC]
Copy OK
Track 10
Filename The Music of Cambodia\The Music of Cambodia Volume 3 - 1994 - Solo Instrumental Music [FLAC]\10 Lom Ang Chhnong.wav
Pre-gap length 0:00:03.66
Peak level 82.7 %
Track quality 100.0 %
Test CRC 8C14456A
Copy CRC 8C14456A
Accurately ripped (confidence 2) [94D49C1D]
Copy OK
Track 11
Filename The Music of Cambodia\The Music of Cambodia Volume 3 - 1994 - Solo Instrumental Music [FLAC]\11 Sorin Khnang Phnom.wav
Pre-gap length 0:00:03.66
Peak level 46.2 %
Track quality 100.0 %
Test CRC AE5F1769
Copy CRC AE5F1769
Accurately ripped (confidence 2) [FBBF99D1]
Copy OK
Track 12
Filename The Music of Cambodia\The Music of Cambodia Volume 3 - 1994 - Solo Instrumental Music [FLAC]\12 Lom Neang.wav
Pre-gap length 0:00:05.66
Peak level 35.1 %
Track quality 100.0 %
Test CRC 853637B5
Copy CRC 853637B5
Accurately ripped (confidence 2) [572B0A91]
Copy OK
Track 13
Filename The Music of Cambodia\The Music of Cambodia Volume 3 - 1994 - Solo Instrumental Music [FLAC]\13 Bam Pe & Band Kong Kha'ek.wav
Pre-gap length 0:00:04.16
Peak level 52.9 %
Track quality 99.9 %
Test CRC 7F2F42F1
Copy CRC 7F2F42F1
Accurately ripped (confidence 2) [19DE20D1]
Copy OK
All tracks accurately ripped
No errors occurred
End of status report

.cue

REM GENRE folk
REM DATE 1995
REM DISCID B111520D
REM COMMENT "ExactAudioCopy v0.99pb5"
FILE "01 Punleu Prey Viel.wav" WAVE
TRACK 01 AUDIO
PREGAP 00:00:33
INDEX 01 00:00:00
TRACK 02 AUDIO
INDEX 00 02:33:25
FILE "02 Yol & Bra Chab.wav" WAVE
INDEX 01 00:00:00
TRACK 03 AUDIO
INDEX 00 02:59:25
FILE "03 Phat Cheay.wav" WAVE
INDEX 01 00:00:00
TRACK 04 AUDIO
INDEX 00 11:30:25
FILE "04 Sam Pov Thay.wav" WAVE
INDEX 01 00:00:00
TRACK 05 AUDIO
INDEX 00 07:26:25
FILE "05 Phat Cheay.wav" WAVE
INDEX 01 00:00:00
TRACK 06 AUDIO
INDEX 00 06:48:25
FILE "06 Khlaong Thom.wav" WAVE
INDEX 01 00:00:00
TRACK 07 AUDIO
INDEX 00 08:44:25
FILE "07 Sam Pong.wav" WAVE
INDEX 01 00:00:00
TRACK 08 AUDIO
INDEX 00 03:36:45
FILE "08 Ta Uk [Grandfather (or Uncle) Uk].wav" WAVE
INDEX 01 00:00:00
TRACK 09 AUDIO
INDEX 00 07:00:25
FILE "09 Sam Pong.wav" WAVE
INDEX 01 00:00:00
TRACK 10 AUDIO
INDEX 00 05:33:25
FILE "10 Lom Ang Chhnong.wav" WAVE
INDEX 01 00:00:00
TRACK 11 AUDIO
INDEX 00 04:06:25
FILE "11 Sorin Khnang Phnom.wav" WAVE
INDEX 01 00:00:00
TRACK 12 AUDIO
INDEX 00 03:31:25
FILE "12 Lom Neang.wav" WAVE
INDEX 01 00:00:00
TRACK 13 AUDIO
INDEX 00 04:06:25
FILE "13 Bam Pe & Band Kong Kha'ek.wav" WAVE
INDEX 01 00:00:00

.accurip

[CUETools log; Date: 03/02/16 16:52:08; Version: 2.1.4]
Pregap length 00:00:33.
[CTDB TOCID: SpQwQk3l.uN2qqU8vqZjB_Cw4nk-] found.
Track | CTDB Status
1 | (1/1) Accurately ripped
2 | (1/1) Accurately ripped
3 | (1/1) Accurately ripped
4 | (1/1) Accurately ripped
5 | (1/1) Accurately ripped
6 | (1/1) Accurately ripped
7 | (1/1) Accurately ripped
8 | (1/1) Accurately ripped
9 | (1/1) Accurately ripped
10 | (1/1) Accurately ripped
11 | (1/1) Accurately ripped
12 | (1/1) Accurately ripped
13 | (1/1) Accurately ripped
[AccurateRip ID: 0025540d-017663ee-b111520d] found.
Track [ CRC | V2 ] Status
01 [38f9be1f|0cbca252] (3+2/5) Accurately ripped
02 [8aa26f12|c85a2d01] (3+2/5) Accurately ripped
03 [6f014d6b|3a1a6f0f] (3+2/5) Accurately ripped
04 [509032e9|9aaed082] (3+2/5) Accurately ripped
05 [8e54db86|5e9b8786] (3+2/5) Accurately ripped
06 [6f673e0a|75698ef4] (3+2/5) Accurately ripped
07 [74217c6f|2d9667e5] (3+2/5) Accurately ripped
08 [8618b471|be66cd0e] (3+2/5) Accurately ripped
09 [ed781eec|d536c1cb] (3+2/5) Accurately ripped
10 [94d49c1d|868dae36] (3+2/5) Accurately ripped
11 [fbbf99d1|4d6f7070] (3+2/5) Accurately ripped
12 [572b0a91|38e1e7ee] (3+2/5) Accurately ripped
13 [19de20d1|0b74b930] (3+2/5) Accurately ripped
Track Peak [ CRC32 ] [W/O NULL] [ LOG ]
-- 100.0 [AF684E74] [798B7097]
01 33.2 [1515C45A] [398A1284] CRC32
02 30.5 [E07228DF] [05487BD7] CRC32
03 89.2 [FA5C7201] [695B8F34] CRC32
04 56.6 [6734C64A] [4DE6ACD8] CRC32
05 100.0 [6544AF61] [13DCF6B4] CRC32
06 28.0 [50BB6D78] [0D050317] CRC32
07 78.4 [BA470EE3] [3484A6B2] CRC32
08 93.4 [757B65D1] [DE0F450A] CRC32
09 50.3 [4CCE1521] [AABA3778] CRC32
10 82.7 [8C14456A] [6F3C49B4] CRC32
11 46.2 [AE5F1769] [3B544ED9] CRC32
12 35.1 [853637B5] [A7527DAA] CRC32
13 52.9 [7F2F42F1] [9A602CBA] CRC32
http://www.allmusic.com/album/music-of-cambodia-celestial-harmonies-mw0000593724
другие релизы
[cybertorrent.ru].t14673.torrent 
Торрент: Зарегистрирован [ Вчера, в 20:42 ] · 4A793DCFF300CF4A3F0A223A98E21AB305DEE651

Скачать .torrent

Скачать

32 KB

Статус: проверено
Скачан: 0 раз
Размер: 1,22 GB
terms.php
Профиль [ЛС]
Показать сообщения:    

Текущее время: 21-Фев 16:44

Часовой пояс: UTC ± 0



Вы не можете начинать темы
Вы не можете отвечать на сообщения
Вы не можете редактировать свои сообщения
Вы не можете удалять свои сообщения
Вы не можете голосовать в опросах
Вы не можете прикреплять файлы к сообщениям
Вы можете скачивать файлы