Статистика раздачи
Размер:  1,46 GB   |    Зарегистрирован:  3 месяца 5 дней   |    Скачан:  0 раз
Сидов:  302  [  0 KB/s  ]   Личеров:  3  [  0 KB/s  ]  
 
   
 
 

lopster ®

Пол:
Не указан
Стаж:
3 месяца 5 дней
Сообщений:
612

Ёлки 5 Жанр: Семейный, комедия
Год выпуска: 2016
Продолжительность: 01:27:43
Субтитры: нет
Режиссер: Тимур Бекмамбетов, Вадим Перельман, Индар Джендубаев
В ролях: Иван Ургант, Сергей Светлаков, Гоша Куценко, Мария Шукшина, Александр Головин, Анна Хилькевич, Александр Домогаров мл., Кирилл Плетнёв, Александр Робак, Анастасия Сметанина
Описание: В этот новый год любимые герои «Ёлок» всё также делают глупости и надеются на чудо. Боре нужно как-то восстановить семейное счастье и ради этого он готов украсть у лучшего друга Жени пингвина. Лыжник и Сноубордист, так и не повзрослевшие, устраивают сумасшедшую погоню за ёлкой. Баба Маня осваивает интернет в надежде найти старую любовь. Профессор из Екатеринбурга остепенился, но теперь сам сходит с ума от ревности. На далеком Севере инженер по технике безопасности должен рискнуть и, наконец, признаться в любви. Ну а пингвину просто очень нужно сесть на яйцо…
Доп. информация:

Релиз от: MegaPeer
Исходник - ELLKee.5.2O16.O.WEB-DL.1O8Op
Сэмпл
Качество видео: WEB-DLRip
Формат видео: AVI
Видео: 720x304 (2.37:1), 24 fps, XviD build 73 ~1 989 kbps avg, 0.45 bit/pixel
Аудио: AC3, 6 ch, 384 kbps, 48.0 kHz-

MediaInfo

General
Complete name : D:\Rips\Elki.5.2016.WEB-DLRip.1.46Gb.MegaPeer.avi
Format : AVI
Format/Info : Audio Video Interleave
File size : 1.46 GiB
Duration : 1 h 27 min
Overall bit rate : 2 381 kb/s
Video
ID : 0
Format : MPEG-4 Visual
Format profile : Advanced Simple@L5
Format settings, BVOP : 1
Format settings, QPel : No
Format settings, GMC : No warppoints
Format settings, Matrix : Custom
Codec ID : XVID
Codec ID/Hint : XviD
Duration : 1 h 27 min
Bit rate : 1 989 kb/s
Width : 720 pixels
Height : 304 pixels
Display aspect ratio : 2.35:1
Frame rate : 24.000 FPS
Color space : YUV
Chroma subsampling : 4:2:0
Bit depth : 8 bits
Scan type : Progressive
Compression mode : Lossy
Bits/(Pixel*Frame) : 0.379
Stream size : 1.22 GiB (84%)
Writing library : XviD 73
Audio
ID : 1
Format : AC-3
Format/Info : Audio Coding 3
Mode extension : CM (complete main)
Format settings, Endianness : Big
Codec ID : 2000
Duration : 1 h 27 min
Bit rate mode : Constant
Bit rate : 384 kb/s
Channel(s) : 6 channels
Channel positions : Front: L C R, Side: L R, LFE
Sampling rate : 48.0 kHz
Frame rate : 31.250 FPS (1536 spf)
Bit depth : 16 bits
Compression mode : Lossy
Stream size : 241 MiB (16%)
Alignment : Aligned on interleaves
Interleave, duration : 64 ms (1.54 video frames)
Interleave, preload duratio : 192 ms
Title : iTunes

Скриншоты

-
[cybertorrent.ru].t150.torrent 
Торрент: Зарегистрирован [ 2018-02-15 13:57 ] · 8253A58C24B723235A6AC0EEBD051490AA4D295A

Скачать .torrent

Скачать

15 KB

Статус: проверено
Скачан: 0 раз
Размер: 1,46 GB
Профиль [ЛС]
Показать сообщения:    

Текущее время: 20-Май 23:32

Часовой пояс: UTC ± 0



Вы не можете начинать темы
Вы не можете отвечать на сообщения
Вы не можете редактировать свои сообщения
Вы не можете удалять свои сообщения
Вы не можете голосовать в опросах
Вы не можете прикреплять файлы к сообщениям
Вы можете скачивать файлы