Статистика раздачи
Размер:  213 MB   |    Зарегистрирован:  16 часов   |    Скачан:  0 раз

Полного источника не было: Никогда

Личеров:  1  [  0 KB/s  ]   Подробная статистика пиров
 
   
 
 

халявщик ®

Пол:
Не указан
Стаж:
5 дней
Сообщений:
56

Putumayo Kids Presents - Hawaiian Playground
Жанр: World
Носитель: CD
Страна-производитель диска (релиза): USA
Год издания: 2008
Издатель (лейбл): Putumayo World Music
Номер по каталогу: PUT274-2
Аудиокодек: FLAC (*.flac)
Тип рипа: tracks+.cue
Битрейт аудио: lossless
Продолжительность: 0:29:45.
Источник (релизер): clustert
Наличие сканов в содержимом раздачи: да
Треклист:
01. The Moonlighters / Right On [0:02:09.49]
02. Willie K / Holoholo Ka'a [0:02:14.32]
03. Ehukai / Moloka'i Slide [0:03:54.11]
04. Teresa Bright / The Cockeyed Mayor of Kaunakakai [0:02:06.66]
05. Justin Young / Pule O'o [0:03:17.15]
06. Joe McDermott / Come To Hawaii [0:02:57.20]
07. Raiatea / Po La'ila'i [0:03:22.37]
08. Robi Kahakalau / Pi'i Mai Ka Nalu [0:04:02.55]
09. Imua / Local To The Max [0:03:06.57]
10. Keali'i Reichel / Toad Song [0:02:33.67]

Лог создания рипа

Exact Audio Copy V1.0 beta 3 from 29. August 2011
Отчёт EAC об извлечении, выполненном 21. июля 2016, 14:19
VA / Putumayo Kids Presents - Hawaiian Playground
Дисковод: ASUS DRW-1814BLT Adapter: 4 ID: 0
Режим чтения : Достоверность
Использование точного потока : Да
Отключение кэша аудио : Да
Использование указателей C2 : Нет
Коррекция смещения при чтении : 6
Способность читать области Lead-in и Lead-out : Нет
Заполнение пропущенных сэмплов тишиной : Да
Удаление блоков с тишиной в начале и конце : Нет
При вычислениях CRC использовались нулевые сэмплы : Да
Интерфейс : Встроенный Win32-интерфейс для Win NT/2000
Обработка зазоров : Добавлено к предыдущему треку
Выходной формат : Пользовательский кодировщик
Выбранный битрейт : 128 kBit/s
Качество : Высокий
Добавление ID3-тега : Нет
Утилита сжатия : C:\Program Files\Exact Audio Copy\Flac\flac.exe
Дополнительные параметры : -V -8 -T "Genre=%genre%" -T "Artist=%artist%" -T "Title=%title%" -T "Album=%albumtitle%" -T "Date=%year%" -T "Tracknumber=%tracknr%" -T "Comment=EAC1.0b2 FLAC -8" %source%
TOC извлечённого CD
Трек | Старт | Длительность | Начальный сектор | Конечный сектор
---------------------------------------------------------------------
1 | 0:00.00 | 2:09.49 | 0 | 9723
2 | 2:09.49 | 2:14.32 | 9724 | 19805
3 | 4:24.06 | 3:54.11 | 19806 | 37366
4 | 8:18.17 | 2:06.66 | 37367 | 46882
5 | 10:25.08 | 3:17.15 | 46883 | 61672
6 | 13:42.23 | 2:57.20 | 61673 | 74967
7 | 16:39.43 | 3:22.37 | 74968 | 90154
8 | 20:02.05 | 4:02.55 | 90155 | 108359
9 | 24:04.60 | 3:06.57 | 108360 | 122366
10 | 27:11.42 | 2:33.67 | 122367 | 133908
Трек 1
Имя файла R:\Раздача 65\VA - Putumayo Kids Presents - Hawaiian Playground - 2008\01 Right On .wav
Длина предзазора 0:00:02.00
Пиковый уровень 97.7 %
Скорость извлечения 4.4 X
Качество трека 100.0 %
CRC теста 20042E6E
CRC копии 20042E6E
Точное извлечение (достоверность 4) [E6BDD76F] (AR v2)
Копирование... OK
Трек 2
Имя файла R:\Раздача 65\VA - Putumayo Kids Presents - Hawaiian Playground - 2008\02 Holoholo Ka'a .wav
Длина предзазора 0:00:00.18
Пиковый уровень 88.8 %
Скорость извлечения 3.3 X
Качество трека 99.9 %
CRC теста D8499BB8
CRC копии D8499BB8
Точное извлечение (достоверность 5) [78B18629] (AR v2)
Копирование... OK
Трек 3
Имя файла R:\Раздача 65\VA - Putumayo Kids Presents - Hawaiian Playground - 2008\03 Moloka'i Slide .wav
Длина предзазора 0:00:01.11
Пиковый уровень 97.7 %
Скорость извлечения 5.6 X
Качество трека 100.0 %
CRC теста 7F5C2D70
CRC копии 7F5C2D70
Точное извлечение (достоверность 5) [7CA59DD5] (AR v2)
Копирование... OK
Трек 4
Имя файла R:\Раздача 65\VA - Putumayo Kids Presents - Hawaiian Playground - 2008\04 The Cockeyed Mayor of Kaunakakai .wav
Длина предзазора 0:00:01.58
Пиковый уровень 97.7 %
Скорость извлечения 5.3 X
Качество трека 100.0 %
CRC теста 4ADFA36D
CRC копии 4ADFA36D
Точное извлечение (достоверность 5) [AEE3B6B4] (AR v2)
Копирование... OK
Трек 5
Имя файла R:\Раздача 65\VA - Putumayo Kids Presents - Hawaiian Playground - 2008\05 Pule O'o .wav
Длина предзазора 0:00:01.35
Пиковый уровень 97.7 %
Скорость извлечения 4.5 X
Качество трека 99.9 %
CRC теста 51287654
CRC копии 51287654
Точное извлечение (достоверность 5) [B89DADC6] (AR v2)
Копирование... OK
Трек 6
Имя файла R:\Раздача 65\VA - Putumayo Kids Presents - Hawaiian Playground - 2008\06 Come To Hawaii .wav
Длина предзазора 0:00:01.48
Пиковый уровень 97.7 %
Скорость извлечения 4.6 X
Качество трека 99.9 %
CRC теста 4E245074
CRC копии 4E245074
Точное извлечение (достоверность 5) [31611D00] (AR v2)
Копирование... OK
Трек 7
Имя файла R:\Раздача 65\VA - Putumayo Kids Presents - Hawaiian Playground - 2008\07 Po La'ila'i .wav
Длина предзазора 0:00:02.30
Пиковый уровень 88.6 %
Скорость извлечения 5.0 X
Качество трека 99.9 %
CRC теста AF1C1C63
CRC копии AF1C1C63
Точное извлечение (достоверность 5) [B56990DE] (AR v2)
Копирование... OK
Трек 8
Имя файла R:\Раздача 65\VA - Putumayo Kids Presents - Hawaiian Playground - 2008\08 Pi'i Mai Ka Nalu .wav
Длина предзазора 0:00:01.71
Пиковый уровень 97.7 %
Скорость извлечения 7.3 X
Качество трека 100.0 %
CRC теста FCCB34BC
CRC копии FCCB34BC
Точное извлечение (достоверность 5) [8232A4FB] (AR v2)
Копирование... OK
Трек 9
Имя файла R:\Раздача 65\VA - Putumayo Kids Presents - Hawaiian Playground - 2008\09 Local To The Max .wav
Длина предзазора 0:00:01.73
Пиковый уровень 97.7 %
Скорость извлечения 7.3 X
Качество трека 100.0 %
CRC теста 0471361E
CRC копии 0471361E
Точное извлечение (достоверность 5) [9686A845] (AR v2)
Копирование... OK
Трек 10
Имя файла R:\Раздача 65\VA - Putumayo Kids Presents - Hawaiian Playground - 2008\10 Toad Song .wav
Длина предзазора 0:00:02.14
Пиковый уровень 97.7 %
Скорость извлечения 6.9 X
Качество трека 100.0 %
CRC теста 368D4952
CRC копии 368D4952
Точное извлечение (достоверность 5) [357F6157] (AR v2)
Копирование... OK
Все треки извлечены точно
Ошибок не произошло
Конец отчёта
==== Контрольная сумма отчёта CAEC264EC69A6FE8D252624CB7077D799F740E316B47E1E1DFE05AFF40E11F17 ====

Содержание индексной карты (.CUE)

REM GENRE Ethnic
REM DATE 2008
REM DISCID 5C06F90A
REM COMMENT "ExactAudioCopy v1.0b3"
PERFORMER "VA"
TITLE "Putumayo Kids Presents - Hawaiian Playground"
FILE "01 Right On .wav" WAVE
TRACK 01 AUDIO
TITLE "Right On"
PERFORMER "The Moonlighters"
FLAGS DCP
INDEX 01 00:00:00
TRACK 02 AUDIO
TITLE "Holoholo Ka'a"
PERFORMER "Willie K"
FLAGS DCP
INDEX 00 02:09:31
FILE "02 Holoholo Ka'a .wav" WAVE
INDEX 01 00:00:00
TRACK 03 AUDIO
TITLE "Moloka'i Slide"
PERFORMER "Ehukai"
FLAGS DCP
INDEX 00 02:13:21
FILE "03 Moloka'i Slide .wav" WAVE
INDEX 01 00:00:00
TRACK 04 AUDIO
TITLE "The Cockeyed Mayor of Kaunakakai"
PERFORMER "Teresa Bright"
FLAGS DCP
INDEX 00 03:52:28
FILE "04 The Cockeyed Mayor of Kaunakakai .wav" WAVE
INDEX 01 00:00:00
TRACK 05 AUDIO
TITLE "Pule O'o"
PERFORMER "Justin Young"
FLAGS DCP
INDEX 00 02:05:31
FILE "05 Pule O'o .wav" WAVE
INDEX 01 00:00:00
TRACK 06 AUDIO
TITLE "Come To Hawaii"
PERFORMER "Joe McDermott"
FLAGS DCP
INDEX 00 03:15:42
FILE "06 Come To Hawaii .wav" WAVE
INDEX 01 00:00:00
TRACK 07 AUDIO
TITLE "Po La'ila'i"
PERFORMER "Raiatea"
FLAGS DCP
INDEX 00 02:54:65
FILE "07 Po La'ila'i .wav" WAVE
INDEX 01 00:00:00
TRACK 08 AUDIO
TITLE "Pi'i Mai Ka Nalu"
PERFORMER "Robi Kahakalau"
FLAGS DCP
INDEX 00 03:20:41
FILE "08 Pi'i Mai Ka Nalu .wav" WAVE
INDEX 01 00:00:00
TRACK 09 AUDIO
TITLE "Local To The Max"
PERFORMER "Imua"
FLAGS DCP
INDEX 00 04:00:57
FILE "09 Local To The Max .wav" WAVE
INDEX 01 00:00:00
TRACK 10 AUDIO
TITLE "Toad Song"
PERFORMER "Keali'i Reichel"
FLAGS DCP
INDEX 00 03:04:43
FILE "10 Toad Song .wav" WAVE
INDEX 01 00:00:00
[cybertorrent.ru].t15323.torrent 
Торрент: Зарегистрирован [ Сегодня, в 00:25 ] · FCBB5C7369B6A52B9443D8FAB990E4A9D76791A9

Скачать .torrent

Скачать

20 KB

Статус: проверено
Скачан: 0 раз
Размер: 213 MB
terms.php
Профиль [ЛС]
Показать сообщения:    

Текущее время: 21-Фев 16:45

Часовой пояс: UTC ± 0



Вы не можете начинать темы
Вы не можете отвечать на сообщения
Вы не можете редактировать свои сообщения
Вы не можете удалять свои сообщения
Вы не можете голосовать в опросах
Вы не можете прикреплять файлы к сообщениям
Вы можете скачивать файлы