Статистика раздачи
Размер:  3,7 GB   |    Зарегистрирован:  3 месяца   |    Скачан:  0 раз

Полного источника не было: Никогда

 
   
 
 

Rita ®

Пол:
Не указан
Стаж:
3 месяца 5 дней
Сообщений:
247

Триада - Дискография -Жанр: Rap, Hip-Hop | Носитель: CD | Страна-производитель дисков: Россия | Год издания: 2004-2016 | Аудиокодек: FLAC (*.flac) | Тип рипа: tracks+.cue
Битрейт аудио: lossless | Продолжительность: 09:09:58 | Источник (релизер): собственные диски | Наличие сканов в содержимом раздачи: да (600 dpi)
-

2004 - Противоядие

Издатель (лейбл): Karavan Music | Номер по каталогу: КМCD 2004-001-Треклист:
01. Интро (1:30)
02. Триада (3:38)
03. Правда (3:51)
04. Послание (интерлюдия) (0:27)
05. Послание (3:39)
06. Пробитые барабаны (3:51)
07. О чём говорят звёзды (3:38)
08. Шахматы (3:28)
09. В тупике (3:52)
10. Скит (2:03)
11. В семь (3:45)
12. Мёртвый город (3:44)
13. Противоядие (3:27)
14. Так просто (2:44)
15. Роботы пидорасы (скит) (1:02)
16. Рабы таланта (4:01)
17. Сон (4:31)
18. Моя религия (4:11)
19. Так просто (ремикс) (3:10)

Время звучания: 01:00:32-

Содержание индексной карты (.CUE)

REM GENRE Hip-Hop
REM DATE 2004
REM DISCID 22107D14
REM COMMENT "ExactAudioCopy v1.3"
PERFORMER "Триада"
TITLE "Противоядие"
REM COMPOSER ""
FILE "01 Интро.flac" WAVE
TRACK 01 AUDIO
TITLE "Интро"
PERFORMER "Триада"
REM COMPOSER ""
INDEX 01 00:00:00
FILE "02 Триада.flac" WAVE
TRACK 02 AUDIO
TITLE "Триада"
PERFORMER "Триада"
REM COMPOSER ""
INDEX 01 00:00:00
FILE "03 Правда.flac" WAVE
TRACK 03 AUDIO
TITLE "Правда"
PERFORMER "Триада"
REM COMPOSER ""
INDEX 01 00:00:00
FILE "04 Послание (интерлюдия).flac" WAVE
TRACK 04 AUDIO
TITLE "Послание (интерлюдия)"
PERFORMER "Триада"
REM COMPOSER ""
INDEX 01 00:00:00
FILE "05 Послание.flac" WAVE
TRACK 05 AUDIO
TITLE "Послание"
PERFORMER "Триада"
REM COMPOSER ""
INDEX 01 00:00:00
FILE "06 Пробитые барабаны.flac" WAVE
TRACK 06 AUDIO
TITLE "Пробитые барабаны"
PERFORMER "Триада"
REM COMPOSER ""
INDEX 01 00:00:00
FILE "07 О чём говорят звёзды.flac" WAVE
TRACK 07 AUDIO
TITLE "О чём говорят звёзды"
PERFORMER "Триада"
REM COMPOSER ""
INDEX 01 00:00:00
FILE "08 Шахматы.flac" WAVE
TRACK 08 AUDIO
TITLE "Шахматы"
PERFORMER "Триада"
REM COMPOSER ""
INDEX 01 00:00:00
FILE "09 В тупике.flac" WAVE
TRACK 09 AUDIO
TITLE "В тупике"
PERFORMER "Триада"
REM COMPOSER ""
INDEX 01 00:00:00
FILE "10 Скит.flac" WAVE
TRACK 10 AUDIO
TITLE "Скит"
PERFORMER "Триада"
REM COMPOSER ""
INDEX 01 00:00:00
FILE "11 В семь.flac" WAVE
TRACK 11 AUDIO
TITLE "В семь"
PERFORMER "Триада"
REM COMPOSER ""
INDEX 01 00:00:00
FILE "12 Мёртвый город.flac" WAVE
TRACK 12 AUDIO
TITLE "Мёртвый город"
PERFORMER "Триада"
REM COMPOSER ""
INDEX 01 00:00:00
FILE "13 Противоядие.flac" WAVE
TRACK 13 AUDIO
TITLE "Противоядие"
PERFORMER "Триада"
REM COMPOSER ""
INDEX 01 00:00:00
FILE "14 Так просто.flac" WAVE
TRACK 14 AUDIO
TITLE "Так просто"
PERFORMER "Триада"
REM COMPOSER ""
INDEX 01 00:00:00
FILE "15 Роботы пидорасы (скит).flac" WAVE
TRACK 15 AUDIO
TITLE "Роботы пидорасы (скит)"
PERFORMER "Триада"
REM COMPOSER ""
INDEX 01 00:00:00
FILE "16 Рабы таланта.flac" WAVE
TRACK 16 AUDIO
TITLE "Рабы таланта"
PERFORMER "Триада"
REM COMPOSER ""
INDEX 01 00:00:00
FILE "17 Сон.flac" WAVE
TRACK 17 AUDIO
TITLE "Сон"
PERFORMER "Триада"
REM COMPOSER ""
INDEX 01 00:00:00
FILE "18 Моя религия.flac" WAVE
TRACK 18 AUDIO
TITLE "Моя религия"
PERFORMER "Триада"
REM COMPOSER ""
INDEX 01 00:00:00
FILE "19 Так просто (ремикс).flac" WAVE
TRACK 19 AUDIO
TITLE "Так просто (ремикс)"
PERFORMER "Триада"
REM COMPOSER ""
INDEX 01 00:00:00
TRACK 20 MODEx/2xxx
TITLE "Бонус: видеоклип ''Мёртвый город''"
PERFORMER "Триада"
REM COMPOSER ""
INDEX 00 03:10:28

Содержание индексной карты (.CUE) рабочий

REM GENRE Hip-Hop
REM DATE 2004
REM DISCID 22107D14
REM COMMENT "ExactAudioCopy v1.3"
PERFORMER "Триада"
TITLE "Противоядие"
REM COMPOSER ""
FILE "01 Интро.flac" WAVE
TRACK 01 AUDIO
TITLE "Интро"
PERFORMER "Триада"
REM COMPOSER ""
INDEX 01 00:00:00
FILE "02 Триада.flac" WAVE
TRACK 02 AUDIO
TITLE "Триада"
PERFORMER "Триада"
REM COMPOSER ""
INDEX 01 00:00:00
FILE "03 Правда.flac" WAVE
TRACK 03 AUDIO
TITLE "Правда"
PERFORMER "Триада"
REM COMPOSER ""
INDEX 01 00:00:00
FILE "04 Послание (интерлюдия).flac" WAVE
TRACK 04 AUDIO
TITLE "Послание (интерлюдия)"
PERFORMER "Триада"
REM COMPOSER ""
INDEX 01 00:00:00
FILE "05 Послание.flac" WAVE
TRACK 05 AUDIO
TITLE "Послание"
PERFORMER "Триада"
REM COMPOSER ""
INDEX 01 00:00:00
FILE "06 Пробитые барабаны.flac" WAVE
TRACK 06 AUDIO
TITLE "Пробитые барабаны"
PERFORMER "Триада"
REM COMPOSER ""
INDEX 01 00:00:00
FILE "07 О чём говорят звёзды.flac" WAVE
TRACK 07 AUDIO
TITLE "О чём говорят звёзды"
PERFORMER "Триада"
REM COMPOSER ""
INDEX 01 00:00:00
FILE "08 Шахматы.flac" WAVE
TRACK 08 AUDIO
TITLE "Шахматы"
PERFORMER "Триада"
REM COMPOSER ""
INDEX 01 00:00:00
FILE "09 В тупике.flac" WAVE
TRACK 09 AUDIO
TITLE "В тупике"
PERFORMER "Триада"
REM COMPOSER ""
INDEX 01 00:00:00
FILE "10 Скит.flac" WAVE
TRACK 10 AUDIO
TITLE "Скит"
PERFORMER "Триада"
REM COMPOSER ""
INDEX 01 00:00:00
FILE "11 В семь.flac" WAVE
TRACK 11 AUDIO
TITLE "В семь"
PERFORMER "Триада"
REM COMPOSER ""
INDEX 01 00:00:00
FILE "12 Мёртвый город.flac" WAVE
TRACK 12 AUDIO
TITLE "Мёртвый город"
PERFORMER "Триада"
REM COMPOSER ""
INDEX 01 00:00:00
FILE "13 Противоядие.flac" WAVE
TRACK 13 AUDIO
TITLE "Противоядие"
PERFORMER "Триада"
REM COMPOSER ""
INDEX 01 00:00:00
FILE "14 Так просто.flac" WAVE
TRACK 14 AUDIO
TITLE "Так просто"
PERFORMER "Триада"
REM COMPOSER ""
INDEX 01 00:00:00
FILE "15 Роботы пидорасы (скит).flac" WAVE
TRACK 15 AUDIO
TITLE "Роботы пидорасы (скит)"
PERFORMER "Триада"
REM COMPOSER ""
INDEX 01 00:00:00
FILE "16 Рабы таланта.flac" WAVE
TRACK 16 AUDIO
TITLE "Рабы таланта"
PERFORMER "Триада"
REM COMPOSER ""
INDEX 01 00:00:00
FILE "17 Сон.flac" WAVE
TRACK 17 AUDIO
TITLE "Сон"
PERFORMER "Триада"
REM COMPOSER ""
INDEX 01 00:00:00
FILE "18 Моя религия.flac" WAVE
TRACK 18 AUDIO
TITLE "Моя религия"
PERFORMER "Триада"
REM COMPOSER ""
INDEX 01 00:00:00
FILE "19 Так просто (ремикс).flac" WAVE
TRACK 19 AUDIO
TITLE "Так просто (ремикс)"
PERFORMER "Триада"
REM COMPOSER ""
INDEX 01 00:00:00

Лог проверки качества

AUDIOCHECKER v2.0 beta (build 457) - by Dester - opdester@freemail.hu
~~~~~~~~~~~~~~~~~~~~~~~~~~~~~~~~~~
-=== НЕ РЕДАКТИРУЙТЕ ЭТОТ ФАЙЛ! ===-
Путь: ...\Триада - Противоядие (2004, Karavan Music, KMCD 2004-001)
01 -=- 01 Интро.flac -=- CDDA (100%)
02 -=- 02 Триада.flac -=- CDDA (100%)
03 -=- 03 Правда.flac -=- CDDA (100%)
04 -=- 04 Послание (интерлюдия).flac -=- CDDA (100%)
05 -=- 05 Послание.flac -=- CDDA (100%)
06 -=- 06 Пробитые барабаны.flac -=- CDDA (100%)
07 -=- 07 О чём говорят звёзды.flac -=- CDDA (100%)
08 -=- 08 Шахматы.flac -=- CDDA (100%)
09 -=- 09 В тупике.flac -=- CDDA (100%)
10 -=- 10 Скит.flac -=- CDDA (100%)
11 -=- 11 В семь.flac -=- CDDA (100%)
12 -=- 12 Мёртвый город.flac -=- CDDA (100%)
13 -=- 13 Противоядие.flac -=- CDDA (100%)
14 -=- 14 Так просто.flac -=- CDDA (100%)
15 -=- 15 Роботы пидорасы (скит).flac -=- CDDA (100%)
16 -=- 16 Рабы таланта.flac -=- CDDA (100%)
17 -=- 17 Сон.flac -=- CDDA (100%)
18 -=- 18 Моя религия.flac -=- CDDA (100%)
19 -=- 19 Так просто (ремикс).flac -=- CDDA (100%)
Сводка 100,00% CDDA
30416420

Видео

Мёртвый город

Продолжительность: 03:47
Размер: 38.9 МБ
Video: MPG 480x360 25.000 fps
Audio: WMA 48 KHz Stereo 224 Kbps

Скриншоты

Релиз

Продолжительность: 00:18
Размер: 23.8 МБ
Video: AVI 768x576 25.000 fps
Audio: WMA 44 KHz Stereo 1411 Kbps

Скриншоты

2005 - Противоядие (переиздание)

Издатель (лейбл): Karavan Music | Номер по каталогу: КМCD 2004-001-Треклист:
01. Интро (1:27)
02. Триада (3:37)
03. Правда (3:50)
04. Послание (интерлюдия) (0:27)
05. Послание (3:38)
06. Пробитые барабаны (3:50)
07. О чём говорят звёзды (3:37)
08. Шахматы (3:26)
09. В тупике (3:50)
10. Скит (2:03)
11. В семь (3:46)
12. Мёртвый город (3:42)
13. Противоядие (3:27)
14. Так просто (2:43)
15. Роботы пидорасы (скит) (1:01)
16. Рабы таланта (4:00)
17. Сон (4:30)
18. Моя религия (4:10)
19. Так просто (ремикс) (3:10)

Время звучания: 01:00:15-

Содержание индексной карты (.CUE)

REM GENRE Hip-Hop
REM DATE 2005
REM DISCID 0E106D14
REM COMMENT "ExactAudioCopy v1.0b3"
PERFORMER "Триада"
TITLE "Противоядие (переиздание)"
FILE "01 Интро.flac" WAVE
TRACK 01 AUDIO
TITLE "Интро"
PERFORMER "Триада"
INDEX 01 00:00:00
TRACK 02 AUDIO
TITLE "Триада"
PERFORMER "Триада"
INDEX 00 01:25:16
FILE "02 Триада.flac" WAVE
INDEX 01 00:00:00
TRACK 03 AUDIO
TITLE "Правда"
PERFORMER "Триада"
INDEX 00 03:34:74
FILE "03 Правда.flac" WAVE
INDEX 01 00:00:00
TRACK 04 AUDIO
TITLE "Послание (интерлюдия)"
PERFORMER "Триада"
INDEX 00 03:47:50
FILE "04 Послание (интерлюдия).flac" WAVE
INDEX 01 00:00:00
TRACK 05 AUDIO
TITLE "Послание"
PERFORMER "Триада"
INDEX 00 00:24:72
FILE "05 Послание.flac" WAVE
INDEX 01 00:00:00
TRACK 06 AUDIO
TITLE "Пробитые барабаны"
PERFORMER "Триада"
INDEX 00 03:35:56
FILE "06 Пробитые барабаны.flac" WAVE
INDEX 01 00:00:00
TRACK 07 AUDIO
TITLE "О чём говорят звёзды"
PERFORMER "Триада"
INDEX 00 03:47:74
FILE "07 О чём говорят звёзды.flac" WAVE
INDEX 01 00:00:00
TRACK 08 AUDIO
TITLE "Шахматы"
PERFORMER "Триада"
INDEX 00 03:35:20
FILE "08 Шахматы.flac" WAVE
INDEX 01 00:00:00
TRACK 09 AUDIO
TITLE "В тупике"
PERFORMER "Триада"
INDEX 00 03:24:20
FILE "09 В тупике.flac" WAVE
INDEX 01 00:00:00
TRACK 10 AUDIO
TITLE "Скит"
PERFORMER "Триада"
INDEX 00 03:48:17
FILE "10 Скит.flac" WAVE
INDEX 01 00:00:00
TRACK 11 AUDIO
TITLE "В семь"
PERFORMER "Триада"
INDEX 00 02:00:38
FILE "11 В семь.flac" WAVE
INDEX 01 00:00:00
TRACK 12 AUDIO
TITLE "Мёртвый город"
PERFORMER "Триада"
INDEX 00 03:44:02
FILE "12 Мёртвый город.flac" WAVE
INDEX 01 00:00:00
TRACK 13 AUDIO
TITLE "Противоядие"
PERFORMER "Триада"
INDEX 00 03:40:11
FILE "13 Противоядие.flac" WAVE
INDEX 01 00:00:00
TRACK 14 AUDIO
TITLE "Так просто"
PERFORMER "Триада"
INDEX 00 03:24:69
FILE "14 Так просто.flac" WAVE
INDEX 01 00:00:00
TRACK 15 AUDIO
TITLE "Роботы пидорасы (скит)"
PERFORMER "Триада"
INDEX 00 02:41:20
FILE "15 Роботы пидорасы (скит).flac" WAVE
INDEX 01 00:00:00
TRACK 16 AUDIO
TITLE "Рабы таланта"
PERFORMER "Триада"
INDEX 00 00:59:07
FILE "16 Рабы таланта.flac" WAVE
INDEX 01 00:00:00
TRACK 17 AUDIO
TITLE "Сон"
PERFORMER "Триада"
INDEX 00 03:57:67
FILE "17 Сон.flac" WAVE
INDEX 01 00:00:00
TRACK 18 AUDIO
TITLE "Моя религия"
PERFORMER "Триада"
INDEX 00 04:28:13
FILE "18 Моя религия.flac" WAVE
INDEX 01 00:00:00
TRACK 19 AUDIO
TITLE "Так просто (ремикс)"
PERFORMER "Триада"
INDEX 00 04:08:22
FILE "19 Так просто (ремикс).flac" WAVE
INDEX 01 00:00:00
TRACK 20 MODEx/2xxx
TITLE "видеоклип ''Мёртвый город''"
PERFORMER "Триада"
INDEX 00 03:10:33

Содержание индексной карты (.CUE) рабочий

REM GENRE Hip-Hop
REM DATE 2005
REM DISCID 0E106D14
REM COMMENT "ExactAudioCopy v1.0b3"
PERFORMER "Триада"
TITLE "Противоядие (переиздание)"
FILE "01 Интро.flac" WAVE
TRACK 01 AUDIO
TITLE "Интро"
PERFORMER "Триада"
INDEX 01 00:00:00
TRACK 02 AUDIO
TITLE "Триада"
PERFORMER "Триада"
INDEX 00 01:25:16
FILE "02 Триада.flac" WAVE
INDEX 01 00:00:00
TRACK 03 AUDIO
TITLE "Правда"
PERFORMER "Триада"
INDEX 00 03:34:74
FILE "03 Правда.flac" WAVE
INDEX 01 00:00:00
TRACK 04 AUDIO
TITLE "Послание (интерлюдия)"
PERFORMER "Триада"
INDEX 00 03:47:50
FILE "04 Послание (интерлюдия).flac" WAVE
INDEX 01 00:00:00
TRACK 05 AUDIO
TITLE "Послание"
PERFORMER "Триада"
INDEX 00 00:24:72
FILE "05 Послание.flac" WAVE
INDEX 01 00:00:00
TRACK 06 AUDIO
TITLE "Пробитые барабаны"
PERFORMER "Триада"
INDEX 00 03:35:56
FILE "06 Пробитые барабаны.flac" WAVE
INDEX 01 00:00:00
TRACK 07 AUDIO
TITLE "О чём говорят звёзды"
PERFORMER "Триада"
INDEX 00 03:47:74
FILE "07 О чём говорят звёзды.flac" WAVE
INDEX 01 00:00:00
TRACK 08 AUDIO
TITLE "Шахматы"
PERFORMER "Триада"
INDEX 00 03:35:20
FILE "08 Шахматы.flac" WAVE
INDEX 01 00:00:00
TRACK 09 AUDIO
TITLE "В тупике"
PERFORMER "Триада"
INDEX 00 03:24:20
FILE "09 В тупике.flac" WAVE
INDEX 01 00:00:00
TRACK 10 AUDIO
TITLE "Скит"
PERFORMER "Триада"
INDEX 00 03:48:17
FILE "10 Скит.flac" WAVE
INDEX 01 00:00:00
TRACK 11 AUDIO
TITLE "В семь"
PERFORMER "Триада"
INDEX 00 02:00:38
FILE "11 В семь.flac" WAVE
INDEX 01 00:00:00
TRACK 12 AUDIO
TITLE "Мёртвый город"
PERFORMER "Триада"
INDEX 00 03:44:02
FILE "12 Мёртвый город.flac" WAVE
INDEX 01 00:00:00
TRACK 13 AUDIO
TITLE "Противоядие"
PERFORMER "Триада"
INDEX 00 03:40:11
FILE "13 Противоядие.flac" WAVE
INDEX 01 00:00:00
TRACK 14 AUDIO
TITLE "Так просто"
PERFORMER "Триада"
INDEX 00 03:24:69
FILE "14 Так просто.flac" WAVE
INDEX 01 00:00:00
TRACK 15 AUDIO
TITLE "Роботы пидорасы (скит)"
PERFORMER "Триада"
INDEX 00 02:41:20
FILE "15 Роботы пидорасы (скит).flac" WAVE
INDEX 01 00:00:00
TRACK 16 AUDIO
TITLE "Рабы таланта"
PERFORMER "Триада"
INDEX 00 00:59:07
FILE "16 Рабы таланта.flac" WAVE
INDEX 01 00:00:00
TRACK 17 AUDIO
TITLE "Сон"
PERFORMER "Триада"
INDEX 00 03:57:67
FILE "17 Сон.flac" WAVE
INDEX 01 00:00:00
TRACK 18 AUDIO
TITLE "Моя религия"
PERFORMER "Триада"
INDEX 00 04:28:13
FILE "18 Моя религия.flac" WAVE
INDEX 01 00:00:00
TRACK 19 AUDIO
TITLE "Так просто (ремикс)"
PERFORMER "Триада"
INDEX 00 04:08:22
FILE "19 Так просто (ремикс).flac" WAVE
INDEX 01 00:00:00

Лог проверки качества

AUDIOCHECKER v2.0 beta (build 457) - by Dester - opdester@freemail.hu
~~~~~~~~~~~~~~~~~~~~~~~~~~~~~~~~~~
-=== НЕ РЕДАКТИРУЙТЕ ЭТОТ ФАЙЛ! ===-
Путь: ...\Триада - Противоядие (переиздание) (2005, Karavan Music, КМCD 2004-001)
01 -=- 01 Интро.flac -=- CDDA (100%)
02 -=- 02 Триада.flac -=- CDDA (100%)
03 -=- 03 Правда.flac -=- CDDA (100%)
04 -=- 04 Послание (интерлюдия).flac -=- CDDA (100%)
05 -=- 05 Послание.flac -=- CDDA (100%)
06 -=- 06 Пробитые барабаны.flac -=- CDDA (100%)
07 -=- 07 О чём говорят звёзды.flac -=- CDDA (100%)
08 -=- 08 Шахматы.flac -=- CDDA (100%)
09 -=- 09 В тупике.flac -=- CDDA (99%)
10 -=- 10 Скит.flac -=- CDDA (100%)
11 -=- 11 В семь.flac -=- CDDA (100%)
12 -=- 12 Мёртвый город.flac -=- CDDA (100%)
13 -=- 13 Противоядие.flac -=- CDDA (99%)
14 -=- 14 Так просто.flac -=- CDDA (99%)
15 -=- 15 Роботы пидорасы (скит).flac -=- CDDA (100%)
16 -=- 16 Рабы таланта.flac -=- CDDA (100%)
17 -=- 17 Сон.flac -=- CDDA (87%)
18 -=- 18 Моя религия.flac -=- CDDA (100%)
19 -=- 19 Так просто (ремикс).flac -=- CDDA (100%)
Сводка 99,16% CDDA
60854116

Видео

Мёртвый город

Продолжительность: 03:47
Размер: 38.9 МБ
Video: MPG 480x360 25.000 fps
Audio: WMA 48 KHz Stereo 224 Kbps

Скриншоты

Релиз

Продолжительность: 00:18
Размер: 23.8 МБ
Video: AVI 768x576 25.000 fps
Audio: WMA 44 KHz Stereo 1411 Kbps

Скриншоты

2005 - Орион (переиздание)

Издатель (лейбл): Karavan Music | Номер по каталогу: КМCD 2005-01-Треклист:
01. Интро (feat. Паддингтон) (1:03)
02. Классика жанра (feat. Крес) (3:31)
03. Заговор (3:14)
04. Золотая арфа (3:38)
05. Секта (2:58)
06. Есть ешё? (скит) (0:11)
07. Кто здесь? (feat. Скато) (4:26)
08. Лабиринт (3:21)
09. Прощай Триада (feat. Лиля) (3:24)
10. Мясо (3:54)
11. Дыхание ночи (feat. Лена) (4:24)
12. Клетка (feat. Сэт) (2:59)
13. Цифровые кропали (3:51)
14. Королек - птичка певчая (4:28)
15. 8 марта (5:05)
16. Маска красной смерти (5:07)
17. Серпентарий (feat. Змей) (3:52)
18. Дежавю (3:38)
19. Аутро (2:15)
20. Фабрика рэпа (бонус трек) (3:50)

Время звучания: 01:09:07-

Содержание индексной карты (.CUE)

REM GENRE Hip-Hop
REM DATE 2005
REM DISCID 24103214
REM COMMENT "ExactAudioCopy v1.0b3"
PERFORMER "Триада"
TITLE "Орион"
FILE "01 Интро (feat. Паддингтон).flac" WAVE
TRACK 01 AUDIO
TITLE "Интро (feat. Паддингтон)"
PERFORMER "Триада"
INDEX 01 00:00:00
FILE "02 Классика жанра (feat. Крес).flac" WAVE
TRACK 02 AUDIO
TITLE "Классика жанра (feat. Крес)"
PERFORMER "Триада"
INDEX 01 00:00:00
FILE "03 Заговор.flac" WAVE
TRACK 03 AUDIO
TITLE "Заговор"
PERFORMER "Триада"
INDEX 01 00:00:00
FILE "04 Золотая арфа.flac" WAVE
TRACK 04 AUDIO
TITLE "Золотая арфа"
PERFORMER "Триада"
INDEX 01 00:00:00
FILE "05 Секта.flac" WAVE
TRACK 05 AUDIO
TITLE "Секта"
PERFORMER "Триада"
INDEX 01 00:00:00
FILE "06 Есть ешё (скит).flac" WAVE
TRACK 06 AUDIO
TITLE "Есть ешё? (скит)"
PERFORMER "Триада"
INDEX 01 00:00:00
FILE "07 Кто здесь (feat. Скато).flac" WAVE
TRACK 07 AUDIO
TITLE "Кто здесь? (feat. Скато)"
PERFORMER "Триада"
INDEX 01 00:00:00
FILE "08 Лабиринт.flac" WAVE
TRACK 08 AUDIO
TITLE "Лабиринт"
PERFORMER "Триада"
INDEX 01 00:00:00
FILE "09 Прощай Триада (feat. Лиля).flac" WAVE
TRACK 09 AUDIO
TITLE "Прощай Триада (feat. Лиля)"
PERFORMER "Триада"
INDEX 01 00:00:00
FILE "10 Мясо.flac" WAVE
TRACK 10 AUDIO
TITLE "Мясо"
PERFORMER "Триада"
INDEX 01 00:00:00
FILE "11 Дыхание ночи (feat. Лена).flac" WAVE
TRACK 11 AUDIO
TITLE "Дыхание ночи (feat. Лена)"
PERFORMER "Триада"
INDEX 01 00:00:00
FILE "12 Клетка (feat. Сэт).flac" WAVE
TRACK 12 AUDIO
TITLE "Клетка (feat. Сэт)"
PERFORMER "Триада"
INDEX 01 00:00:00
FILE "13 Цифровые кропали.flac" WAVE
TRACK 13 AUDIO
TITLE "Цифровые кропали"
PERFORMER "Триада"
INDEX 01 00:00:00
FILE "14 Королек - птичка певчая.flac" WAVE
TRACK 14 AUDIO
TITLE "Королек - птичка певчая"
PERFORMER "Триада"
INDEX 01 00:00:00
FILE "15 8 марта.flac" WAVE
TRACK 15 AUDIO
TITLE "8 марта"
PERFORMER "Триада"
INDEX 01 00:00:00
FILE "16 Маска красной смерти.flac" WAVE
TRACK 16 AUDIO
TITLE "Маска красной смерти"
PERFORMER "Триада"
INDEX 01 00:00:00
FILE "17 Серпентарий (feat. Змей).flac" WAVE
TRACK 17 AUDIO
TITLE "Серпентарий (feat. Змей)"
PERFORMER "Триада"
INDEX 01 00:00:00
FILE "18 Дежавю.flac" WAVE
TRACK 18 AUDIO
TITLE "Дежавю"
PERFORMER "Триада"
INDEX 01 00:00:00
FILE "19 Аутро.flac" WAVE
TRACK 19 AUDIO
TITLE "Аутро"
PERFORMER "Триада"
INDEX 01 00:00:00
FILE "20 Фабрика рэпа (бонус трек).flac" WAVE
TRACK 20 AUDIO
TITLE "Фабрика рэпа (бонус трек)"
PERFORMER "Триада"
INDEX 01 00:00:00

Лог проверки качества

AUDIOCHECKER v2.0 beta (build 457) - by Dester - opdester@freemail.hu
~~~~~~~~~~~~~~~~~~~~~~~~~~~~~~~~~~
-=== НЕ РЕДАКТИРУЙТЕ ЭТОТ ФАЙЛ! ===-
Путь: ...\Триада - Орион (2005, Karavan Music, КМCD 2005-01)
01 -=- 01 Интро (feat. Паддингтон).flac -=- CDDA (99%)
02 -=- 02 Классика жанра (feat. Крес).flac -=- CDDA (100%)
03 -=- 03 Заговор.flac -=- CDDA (99%)
04 -=- 04 Золотая арфа.flac -=- CDDA (100%)
05 -=- 05 Секта.flac -=- CDDA (100%)
06 -=- 06 Есть ешё (скит).flac -=- CDDA (100%)
07 -=- 07 Кто здесь (feat. Скато).flac -=- CDDA (100%)
08 -=- 08 Лабиринт.flac -=- CDDA (100%)
09 -=- 09 Прощай Триада (feat. Лиля).flac -=- CDDA (100%)
10 -=- 10 Мясо.flac -=- CDDA (100%)
11 -=- 11 Дыхание ночи (feat. Лена).flac -=- CDDA (100%)
12 -=- 12 Клетка (feat. Сэт).flac -=- CDDA (100%)
13 -=- 13 Цифровые кропали.flac -=- CDDA (100%)
14 -=- 14 Королек - птичка певчая.flac -=- CDDA (100%)
15 -=- 15 8 марта.flac -=- CDDA (100%)
16 -=- 16 Маска красной смерти.flac -=- CDDA (100%)
17 -=- 17 Серпентарий (feat. Змей).flac -=- CDDA (99%)
18 -=- 18 Дежавю.flac -=- CDDA (100%)
19 -=- 19 Аутро.flac -=- CDDA (99%)
20 -=- 20 Фабрика рэпа (бонус трек).flac -=- CDDA (100%)
Сводка 99,80% CDDA
196945716

2007 - Август

Издатель (лейбл): ООО ''ПК Монолит'' | Номер по каталогу: MT 715391-563-1-Треклист:
01. Энергия атома (3:07)
02. Белый танец (3:31)
03. Восток (3:06)
04. Моё немое кино (3:30)
05. Эстафета (2:54)
06. Невесомость (3:24)
07. 8000 (3:16)
08. Дискотека камуфляж (3:02)
09. Нежный омут (3:37)
10. Молодые и злые (3:01)
11. Колыбельная (3:32)
12. На частоте 90 (3:28)
13. Детство (3:51)
14. Мадам (3:16)
15. Закат (3:23)
16. Спецом (3:23)

Время звучания: 00:53:21-

Содержание индексной карты (.CUE)

REM GENRE Hip-Hop
REM DATE 2007
REM DISCID F20D2611
REM COMMENT "ExactAudioCopy v1.0b3"
PERFORMER "Триада"
TITLE "Август"
FILE "01 Энергия атома.flac" WAVE
TRACK 01 AUDIO
TITLE "Энергия атома"
PERFORMER "Триада"
FLAGS DCP
INDEX 01 00:00:00
FILE "02 Белый танец.flac" WAVE
TRACK 02 AUDIO
TITLE "Белый танец"
PERFORMER "Триада"
FLAGS DCP
INDEX 01 00:00:00
FILE "03 Восток.flac" WAVE
TRACK 03 AUDIO
TITLE "Восток"
PERFORMER "Триада"
FLAGS DCP
INDEX 01 00:00:00
FILE "04 Моё немое кино.flac" WAVE
TRACK 04 AUDIO
TITLE "Моё немое кино"
PERFORMER "Триада"
FLAGS DCP
INDEX 01 00:00:00
FILE "05 Эстафета.flac" WAVE
TRACK 05 AUDIO
TITLE "Эстафета"
PERFORMER "Триада"
FLAGS DCP
INDEX 01 00:00:00
FILE "06 Невесомость.flac" WAVE
TRACK 06 AUDIO
TITLE "Невесомость"
PERFORMER "Триада"
FLAGS DCP
INDEX 01 00:00:00
FILE "07 8000.flac" WAVE
TRACK 07 AUDIO
TITLE "8000"
PERFORMER "Триада"
FLAGS DCP
INDEX 01 00:00:00
FILE "08 Дискотека камуфляж.flac" WAVE
TRACK 08 AUDIO
TITLE "Дискотека камуфляж"
PERFORMER "Триада"
FLAGS DCP
INDEX 01 00:00:00
FILE "09 Нежный омут.flac" WAVE
TRACK 09 AUDIO
TITLE "Нежный омут"
PERFORMER "Триада"
FLAGS DCP
INDEX 01 00:00:00
FILE "10 Молодые и злые.flac" WAVE
TRACK 10 AUDIO
TITLE "Молодые и злые"
PERFORMER "Триада"
FLAGS DCP
INDEX 01 00:00:00
FILE "11 Колыбельная.flac" WAVE
TRACK 11 AUDIO
TITLE "Колыбельная"
PERFORMER "Триада"
FLAGS DCP
INDEX 01 00:00:00
FILE "12 На частоте 90.flac" WAVE
TRACK 12 AUDIO
TITLE "На частоте 90"
PERFORMER "Триада"
FLAGS DCP
INDEX 01 00:00:00
FILE "13 Детство.flac" WAVE
TRACK 13 AUDIO
TITLE "Детство"
PERFORMER "Триада"
FLAGS DCP
INDEX 01 00:00:00
FILE "14 Мадам.flac" WAVE
TRACK 14 AUDIO
TITLE "Мадам"
PERFORMER "Триада"
FLAGS DCP
INDEX 01 00:00:00
FILE "15 Закат.flac" WAVE
TRACK 15 AUDIO
TITLE "Закат"
PERFORMER "Триада"
FLAGS DCP
INDEX 01 00:00:00
FILE "16 Спецом.flac" WAVE
TRACK 16 AUDIO
TITLE "Спецом"
PERFORMER "Триада"
FLAGS DCP
INDEX 01 00:00:00
TRACK 17 MODEx/2xxx
TITLE "плэй"
PERFORMER "Триада"
INDEX 00 03:23:18

Содержание индексной карты (.CUE) рабочий

REM GENRE Hip-Hop
REM DATE 2007
REM DISCID F20D2611
REM COMMENT "ExactAudioCopy v1.0b3"
PERFORMER "Триада"
TITLE "Август"
FILE "01 Энергия атома.flac" WAVE
TRACK 01 AUDIO
TITLE "Энергия атома"
PERFORMER "Триада"
FLAGS DCP
INDEX 01 00:00:00
FILE "02 Белый танец.flac" WAVE
TRACK 02 AUDIO
TITLE "Белый танец"
PERFORMER "Триада"
FLAGS DCP
INDEX 01 00:00:00
FILE "03 Восток.flac" WAVE
TRACK 03 AUDIO
TITLE "Восток"
PERFORMER "Триада"
FLAGS DCP
INDEX 01 00:00:00
FILE "04 Моё немое кино.flac" WAVE
TRACK 04 AUDIO
TITLE "Моё немое кино"
PERFORMER "Триада"
FLAGS DCP
INDEX 01 00:00:00
FILE "05 Эстафета.flac" WAVE
TRACK 05 AUDIO
TITLE "Эстафета"
PERFORMER "Триада"
FLAGS DCP
INDEX 01 00:00:00
FILE "06 Невесомость.flac" WAVE
TRACK 06 AUDIO
TITLE "Невесомость"
PERFORMER "Триада"
FLAGS DCP
INDEX 01 00:00:00
FILE "07 8000.flac" WAVE
TRACK 07 AUDIO
TITLE "8000"
PERFORMER "Триада"
FLAGS DCP
INDEX 01 00:00:00
FILE "08 Дискотека камуфляж.flac" WAVE
TRACK 08 AUDIO
TITLE "Дискотека камуфляж"
PERFORMER "Триада"
FLAGS DCP
INDEX 01 00:00:00
FILE "09 Нежный омут.flac" WAVE
TRACK 09 AUDIO
TITLE "Нежный омут"
PERFORMER "Триада"
FLAGS DCP
INDEX 01 00:00:00
FILE "10 Молодые и злые.flac" WAVE
TRACK 10 AUDIO
TITLE "Молодые и злые"
PERFORMER "Триада"
FLAGS DCP
INDEX 01 00:00:00
FILE "11 Колыбельная.flac" WAVE
TRACK 11 AUDIO
TITLE "Колыбельная"
PERFORMER "Триада"
FLAGS DCP
INDEX 01 00:00:00
FILE "12 На частоте 90.flac" WAVE
TRACK 12 AUDIO
TITLE "На частоте 90"
PERFORMER "Триада"
FLAGS DCP
INDEX 01 00:00:00
FILE "13 Детство.flac" WAVE
TRACK 13 AUDIO
TITLE "Детство"
PERFORMER "Триада"
FLAGS DCP
INDEX 01 00:00:00
FILE "14 Мадам.flac" WAVE
TRACK 14 AUDIO
TITLE "Мадам"
PERFORMER "Триада"
FLAGS DCP
INDEX 01 00:00:00
FILE "15 Закат.flac" WAVE
TRACK 15 AUDIO
TITLE "Закат"
PERFORMER "Триада"
FLAGS DCP
INDEX 01 00:00:00
FILE "16 Спецом.flac" WAVE
TRACK 16 AUDIO
TITLE "Спецом"
PERFORMER "Триада"
FLAGS DCP
INDEX 01 00:00:00

Лог проверки качества

AUDIOCHECKER v2.0 beta (build 457) - by Dester - opdester@freemail.hu
~~~~~~~~~~~~~~~~~~~~~~~~~~~~~~~~~~
-=== НЕ РЕДАКТИРУЙТЕ ЭТОТ ФАЙЛ! ===-
Путь: ...\Триада - Август (2007, ООО ''ПК Монолит'', MT 715391-563-1)
01 -=- 01 Энергия атома.flac -=- CDDA (100%)
02 -=- 02 Белый танец.flac -=- CDDA (100%)
03 -=- 03 Восток.flac -=- CDDA (58%)
04 -=- 04 Моё немое кино.flac -=- CDDA (100%)
05 -=- 05 Эстафета.flac -=- CDDA (100%)
06 -=- 06 Невесомость.flac -=- CDDA (100%)
07 -=- 07 8000.flac -=- CDDA (99%)
08 -=- 08 Дискотека камуфляж.flac -=- CDDA (99%)
09 -=- 09 Нежный омут.flac -=- CDDA (100%)
10 -=- 10 Молодые и злые.flac -=- CDDA (100%)
11 -=- 11 Колыбельная.flac -=- CDDA (100%)
12 -=- 12 На частоте 90.flac -=- CDDA (100%)
13 -=- 13 Детство.flac -=- CDDA (100%)
14 -=- 14 Мадам.flac -=- CDDA (100%)
15 -=- 15 Закат.flac -=- CDDA (100%)
16 -=- 16 Спецом.flac -=- CDDA (100%)
Сводка 97,25% CDDA
207243940

2009 - Шестое чувство

Издатель (лейбл): ООО ''ПК Монолит'' | Номер по каталогу: MT 000410-131-1-Треклист:
01. Бум при уч. CBO, PLC (3:10)
02. Моя звезда при уч. Мерс (3:41)
03. МС (3:35)
04. Одна (3:14)
05. 911 при уч. MaryJane (3:45)
06. Паранойя (3:57)
07. Седая ночь (Я хлопну дверью) при уч. Тати (3:09)
08. Одна цель (3:00)
09. Да (3:13)
10. Рефлекс при уч. Хаак (3:35)
11. Если бы (3:36)
12. Цыганская (3:04)
13. Для тебя при уч. Крит (4:25)
14. Доброе утро (3:32)
15. Люблино при уч. Nady (4:02)
16. Лебединая (4:21)
17. Финал битвы (3:19)

Время звучания: 01:00:39-

Содержание индексной карты (.CUE)

REM GENRE Hip-Hop
REM DATE 2009
REM DISCID EB0E3611
REM COMMENT "ExactAudioCopy v1.0b3"
PERFORMER "Триада"
TITLE "Шестое чувство"
FILE "01 Бум при уч. CBO, PLC.flac" WAVE
TRACK 01 AUDIO
TITLE "Бум при уч. CBO, PLC"
PERFORMER "Триада"
INDEX 01 00:00:00
TRACK 02 AUDIO
TITLE "Моя звезда при уч. Мерс"
PERFORMER "Триада"
INDEX 00 03:09:23
FILE "02 Моя звезда при уч. Мерс.flac" WAVE
INDEX 01 00:00:00
TRACK 03 AUDIO
TITLE "МС"
PERFORMER "Триада"
INDEX 00 03:40:04
FILE "03 МС.flac" WAVE
INDEX 01 00:00:00
TRACK 04 AUDIO
TITLE "Одна"
PERFORMER "Триада"
INDEX 00 03:34:22
FILE "04 Одна.flac" WAVE
INDEX 01 00:00:00
TRACK 05 AUDIO
TITLE "911 при уч. MaryJane"
PERFORMER "Триада"
INDEX 00 03:13:10
FILE "05 911 при уч. MaryJane.flac" WAVE
INDEX 01 00:00:00
TRACK 06 AUDIO
TITLE "Паранойя"
PERFORMER "Триада"
INDEX 00 03:44:27
FILE "06 Паранойя.flac" WAVE
INDEX 01 00:00:00
TRACK 07 AUDIO
TITLE "Седая ночь (Я хлопну дверью) при уч. Тати"
PERFORMER "Триада"
INDEX 00 03:55:41
FILE "07 Седая ночь (Я хлопну дверью) при уч. Тати.flac" WAVE
INDEX 01 00:00:00
TRACK 08 AUDIO
TITLE "Одна цель"
PERFORMER "Триада"
INDEX 00 03:08:25
FILE "08 Одна цель.flac" WAVE
INDEX 01 00:00:00
TRACK 09 AUDIO
TITLE "Да"
PERFORMER "Триада"
INDEX 00 02:59:30
FILE "09 Да.flac" WAVE
INDEX 01 00:00:00
TRACK 10 AUDIO
TITLE "Рефлекс при уч. Хаак"
PERFORMER "Триада"
INDEX 00 03:12:01
FILE "10 Рефлекс при уч. Хаак.flac" WAVE
INDEX 01 00:00:00
TRACK 11 AUDIO
TITLE "Если бы"
PERFORMER "Триада"
INDEX 00 03:33:66
FILE "11 Если бы.flac" WAVE
INDEX 01 00:00:00
TRACK 12 AUDIO
TITLE "Цыганская"
PERFORMER "Триада"
INDEX 00 03:34:44
FILE "12 Цыганская.flac" WAVE
INDEX 01 00:00:00
TRACK 13 AUDIO
TITLE "Для тебя при уч. Крит"
PERFORMER "Триада"
INDEX 00 03:02:68
FILE "13 Для тебя при уч. Крит.flac" WAVE
INDEX 01 00:00:00
TRACK 14 AUDIO
TITLE "Доброе утро"
PERFORMER "Триада"
INDEX 00 04:23:55
FILE "14 Доброе утро.flac" WAVE
INDEX 01 00:00:00
TRACK 15 AUDIO
TITLE "Люблино при уч. Nady"
PERFORMER "Триада"
INDEX 00 03:31:29
FILE "15 Люблино при уч. Nady.flac" WAVE
INDEX 01 00:00:00
TRACK 16 AUDIO
TITLE "Лебединая"
PERFORMER "Триада"
INDEX 00 04:01:25
FILE "16 Лебединая.flac" WAVE
INDEX 01 00:00:00
TRACK 17 AUDIO
TITLE "Финал битвы"
PERFORMER "Триада"
INDEX 00 04:19:53
FILE "17 Финал битвы.flac" WAVE
INDEX 01 00:00:00

Лог проверки качества

AUDIOCHECKER v2.0 beta (build 457) - by Dester - opdester@freemail.hu
~~~~~~~~~~~~~~~~~~~~~~~~~~~~~~~~~~
-=== НЕ РЕДАКТИРУЙТЕ ЭТОТ ФАЙЛ! ===-
Путь: ...\Триада - Шестое чувство (2009, ООО ''ПК Монолит'', MT 000410-131-1)
01 -=- 01 Бум при уч. CBO, PLC.flac -=- CDDA (100%)
02 -=- 02 Моя звезда при уч. Мерс.flac -=- CDDA (100%)
03 -=- 03 МС.flac -=- CDDA (100%)
04 -=- 04 Одна.flac -=- CDDA (100%)
05 -=- 05 911 при уч. MaryJane.flac -=- CDDA (100%)
06 -=- 06 Паранойя.flac -=- CDDA (100%)
07 -=- 07 Седая ночь (Я хлопну дверью) при уч. Тати.flac -=- MPEG (95%)
08 -=- 08 Одна цель.flac -=- CDDA (100%)
09 -=- 09 Да.flac -=- CDDA (100%)
10 -=- 10 Рефлекс при уч. Хаак.flac -=- CDDA (100%)
11 -=- 11 Если бы.flac -=- CDDA (100%)
12 -=- 12 Цыганская.flac -=- CDDA (100%)
13 -=- 13 Для тебя при уч. Крит.flac -=- CDDA (100%)
14 -=- 14 Доброе утро.flac -=- CDDA (100%)
15 -=- 15 Люблино при уч. Nady.flac -=- CDDA (100%)
16 -=- 16 Лебединая.flac -=- CDDA (100%)
17 -=- 17 Финал битвы.flac -=- CDDA (100%)
Сводка 94,41% CDDA
39160356

2012 - Мои глаза открыты

Издатель (лейбл): ООО ''Торговый Союз'' | Номер по каталогу: ТС 22-Треклист:
01. Доктор (4:13)
02. Жми ''Play'' (при уч. Лион) (3:44)
03. Муза (3:31)
04. Без ума (3:06)
05. Самим собой (3:23)
06. Завтра (4:25)
07. Степлер (3:58)
08. Бойся (3:26)
09. Устал (при уч. Булат) (5:03)
10. Штук 10 (3:12)
11. Она не узнает (3:28)
12. Шапито (3:45)
13. Бали (3:04)
14. Вы этого не увидите (3:54)
15. Ступай (3:57)

Время звучания: 00:56:08-

Содержание индексной карты (.CUE)

REM GENRE Hip-Hop
REM DATE 2012
REM DISCID F60D280F
REM COMMENT "ExactAudioCopy v1.0b3"
PERFORMER "Триада"
TITLE "Мои глаза открыты"
FILE "01 Доктор.flac" WAVE
TRACK 01 AUDIO
TITLE "Доктор"
PERFORMER "Триада"
INDEX 01 00:00:00
FILE "02 Жми ''Play'' (при уч. Лион).flac" WAVE
TRACK 02 AUDIO
TITLE "Жми 'Play' (при уч. Лион)"
PERFORMER "Триада"
INDEX 01 00:00:00
FILE "03 Муза.flac" WAVE
TRACK 03 AUDIO
TITLE "Муза"
PERFORMER "Триада"
INDEX 01 00:00:00
FILE "04 Без ума.flac" WAVE
TRACK 04 AUDIO
TITLE "Без ума"
PERFORMER "Триада"
INDEX 01 00:00:00
FILE "05 Самим собой.flac" WAVE
TRACK 05 AUDIO
TITLE "Самим собой"
PERFORMER "Триада"
INDEX 01 00:00:00
FILE "06 Завтра.flac" WAVE
TRACK 06 AUDIO
TITLE "Завтра"
PERFORMER "Триада"
INDEX 01 00:00:00
FILE "07 Степлер.flac" WAVE
TRACK 07 AUDIO
TITLE "Степлер"
PERFORMER "Триада"
INDEX 01 00:00:00
FILE "08 Бойся.flac" WAVE
TRACK 08 AUDIO
TITLE "Бойся"
PERFORMER "Триада"
INDEX 01 00:00:00
FILE "09 Устал (при уч. Булат).flac" WAVE
TRACK 09 AUDIO
TITLE "Устал (при уч. Булат)"
PERFORMER "Триада"
INDEX 01 00:00:00
FILE "10 Штук 10.flac" WAVE
TRACK 10 AUDIO
TITLE "Штук 10"
PERFORMER "Триада"
INDEX 01 00:00:00
FILE "11 Она не узнает.flac" WAVE
TRACK 11 AUDIO
TITLE "Она не узнает"
PERFORMER "Триада"
INDEX 01 00:00:00
FILE "12 Шапито.flac" WAVE
TRACK 12 AUDIO
TITLE "Шапито"
PERFORMER "Триада"
INDEX 01 00:00:00
FILE "13 Бали.flac" WAVE
TRACK 13 AUDIO
TITLE "Бали"
PERFORMER "Триада"
INDEX 01 00:00:00
FILE "14 Вы этого не увидите.flac" WAVE
TRACK 14 AUDIO
TITLE "Вы этого не увидите"
PERFORMER "Триада"
INDEX 01 00:00:00
FILE "15 Ступай.flac" WAVE
TRACK 15 AUDIO
TITLE "Ступай"
PERFORMER "Триада"
INDEX 01 00:00:00

Лог проверки качества

AUDIOCHECKER v2.0 beta (build 457) - by Dester - opdester@freemail.hu
~~~~~~~~~~~~~~~~~~~~~~~~~~~~~~~~~~
-=== НЕ РЕДАКТИРУЙТЕ ЭТОТ ФАЙЛ! ===-
Путь: ...\Триада - Мои глаза открыты (2012, ООО ''Торговый Союз'', ТС 22)
01 -=- 01 Доктор.flac -=- CDDA (100%)
02 -=- 02 Жми ''Play'' (при уч. Лион).flac -=- CDDA (100%)
03 -=- 03 Муза.flac -=- CDDA (99%)
04 -=- 04 Без ума.flac -=- CDDA (100%)
05 -=- 05 Самим собой.flac -=- CDDA (99%)
06 -=- 06 Завтра.flac -=- CDDA (100%)
07 -=- 07 Степлер.flac -=- CDDA (99%)
08 -=- 08 Бойся.flac -=- CDDA (99%)
09 -=- 09 Устал (при уч. Булат).flac -=- CDDA (99%)
10 -=- 10 Штук 10.flac -=- CDDA (100%)
11 -=- 11 Она не узнает.flac -=- CDDA (100%)
12 -=- 12 Шапито.flac -=- CDDA (99%)
13 -=- 13 Бали.flac -=- CDDA (100%)
14 -=- 14 Вы этого не увидите.flac -=- CDDA (92%)
15 -=- 15 Ступай.flac -=- CDDA (100%)
Сводка 99,07% CDDA
136163668

2013 - Исток

Издатель (лейбл): ООО ''Пронин Менеджмент'' | Номер по каталогу: PM 005-Треклист:
01. Всем (2:56)
02. Первая весна (2:59)
03. 30 лет спустя (3:23)
04. Нечего терять (4:03)
05. Свет не горит (3:18)
06. Тюльпан (2:53)
07. Просто рэп (3:06)
08. Никуда (при уч. Булат) (3:01)
09. Окна (3:10)
10. Скит (Окна) (1:14)
11. Твой танец (2:49)
12. Никто кроме тебя (4:01)
13. Ночная (при уч. Рем Дигга) (3:24)
14. Пора взрослеть (3:17)
15. Пару слов (3:46)

Время звучания: 00:47:22-

Содержание индексной карты (.CUE)

REM GENRE Hip-Hop
REM DATE 2013
REM DISCID B10B1A0F
REM COMMENT "ExactAudioCopy v1.0b3"
PERFORMER "Триада"
TITLE "Исток"
FILE "01 Всем.flac" WAVE
TRACK 01 AUDIO
TITLE "Всем"
PERFORMER "Триада"
INDEX 01 00:00:00
FILE "02 Первая весна.flac" WAVE
TRACK 02 AUDIO
TITLE "Первая весна"
PERFORMER "Триада"
INDEX 01 00:00:00
FILE "03 30 лет спустя.flac" WAVE
TRACK 03 AUDIO
TITLE "30 лет спустя"
PERFORMER "Триада"
INDEX 01 00:00:00
FILE "04 Нечего терять.flac" WAVE
TRACK 04 AUDIO
TITLE "Нечего терять"
PERFORMER "Триада"
INDEX 01 00:00:00
FILE "05 Свет не горит.flac" WAVE
TRACK 05 AUDIO
TITLE "Свет не горит"
PERFORMER "Триада"
INDEX 01 00:00:00
FILE "06 Тюльпан.flac" WAVE
TRACK 06 AUDIO
TITLE "Тюльпан"
PERFORMER "Триада"
INDEX 01 00:00:00
FILE "07 Просто рэп.flac" WAVE
TRACK 07 AUDIO
TITLE "Просто рэп"
PERFORMER "Триада"
INDEX 01 00:00:00
FILE "08 Никуда (при уч. Булат).flac" WAVE
TRACK 08 AUDIO
TITLE "Никуда (при уч. Булат)"
PERFORMER "Триада"
INDEX 01 00:00:00
FILE "09 Окна.flac" WAVE
TRACK 09 AUDIO
TITLE "Окна"
PERFORMER "Триада"
INDEX 01 00:00:00
FILE "10 Скит (Окна).flac" WAVE
TRACK 10 AUDIO
TITLE "Скит (Окна)"
PERFORMER "Триада"
INDEX 01 00:00:00
FILE "11 Твой танец.flac" WAVE
TRACK 11 AUDIO
TITLE "Твой танец"
PERFORMER "Триада"
INDEX 01 00:00:00
FILE "12 Никто кроме тебя.flac" WAVE
TRACK 12 AUDIO
TITLE "Никто кроме тебя"
PERFORMER "Триада"
INDEX 01 00:00:00
FILE "13 Ночная (при уч. Рем Дигга).flac" WAVE
TRACK 13 AUDIO
TITLE "Ночная (при уч. Рем Дигга)"
PERFORMER "Триада"
INDEX 01 00:00:00
FILE "14 Пора взрослеть.flac" WAVE
TRACK 14 AUDIO
TITLE "Пора взрослеть"
PERFORMER "Триада"
INDEX 01 00:00:00
FILE "15 Пару слов.flac" WAVE
TRACK 15 AUDIO
TITLE "Пару слов"
PERFORMER "Триада"
INDEX 01 00:00:00

Лог проверки качества

AUDIOCHECKER v2.0 beta (build 457) - by Dester - opdester@freemail.hu
~~~~~~~~~~~~~~~~~~~~~~~~~~~~~~~~~~
-=== НЕ РЕДАКТИРУЙТЕ ЭТОТ ФАЙЛ! ===-
Путь: ...\Триада - Исток (2013, ООО ''Пронин Менеджмент'', PM 005)
01 -=- 01 Всем.flac -=- CDDA (100%)
02 -=- 02 Первая весна.flac -=- CDDA (100%)
03 -=- 03 30 лет спустя.flac -=- CDDA (100%)
04 -=- 04 Нечего терять.flac -=- CDDA (100%)
05 -=- 05 Свет не горит.flac -=- CDDA (100%)
06 -=- 06 Тюльпан.flac -=- CDDA (100%)
07 -=- 07 Просто рэп.flac -=- CDDA (100%)
08 -=- 08 Никуда (при уч. Булат).flac -=- CDDA (100%)
09 -=- 09 Окна.flac -=- CDDA (100%)
10 -=- 10 Скит (Окна).flac -=- CDDA (100%)
11 -=- 11 Твой танец.flac -=- CDDA (100%)
12 -=- 12 Никто кроме тебя.flac -=- CDDA (100%)
13 -=- 13 Ночная (при уч. Рем Дигга).flac -=- CDDA (100%)
14 -=- 14 Пора взрослеть.flac -=- CDDA (100%)
15 -=- 15 Пару слов.flac -=- CDDA (99%)
Сводка 99,93% CDDA
233881796

2014 - Записки сумaсшедшего (сборник лучшей лирики за 10 лет)

Издатель (лейбл): Pronin Management | Номер по каталогу: PM-005-Треклист:
01. Дежавю (3:39)
02. Утраченные иллюзии (3:52)
03. Белый танец (3:33)
04. Нежный омут (3:38)
05. Закат (3:24)
06. О чём молчим (3:34)
07. Записки сумасшедшего (4:20)
08. Доброе утро (3:34)
09. Лебединая (4:23)
10. История одной болезни (4:51)
11. Белое танго (4:05)
12. Измена (3:41)
13. Без ума (3:05)
14. Бали (3:03)
15. Школьница (3:17)
16. Свет не горит (3:20)
17. Твой танец (2:52)

Время звучания: 01:02:08-

Содержание индексной карты (.CUE)

REM GENRE Hip-Hop
REM DATE 2014
REM DISCID FB0E9011
REM COMMENT "ExactAudioCopy v1.0b3"
PERFORMER "Триада"
TITLE "Записки сумасшедшего (сборник лучшей лирики за 10 лет)"
FILE "01 Дежавю.flac" WAVE
TRACK 01 AUDIO
TITLE "Дежавю"
PERFORMER "Триада"
INDEX 01 00:00:00
FILE "02 Утраченные иллюзии.flac" WAVE
TRACK 02 AUDIO
TITLE "Утраченные иллюзии"
PERFORMER "Триада"
INDEX 01 00:00:00
FILE "03 Белый танец.flac" WAVE
TRACK 03 AUDIO
TITLE "Белый танец"
PERFORMER "Триада"
INDEX 01 00:00:00
FILE "04 Нежный омут.flac" WAVE
TRACK 04 AUDIO
TITLE "Нежный омут"
PERFORMER "Триада"
INDEX 01 00:00:00
FILE "05 Закат.flac" WAVE
TRACK 05 AUDIO
TITLE "Закат"
PERFORMER "Триада"
INDEX 01 00:00:00
FILE "06 О чём молчим.flac" WAVE
TRACK 06 AUDIO
TITLE "О чём молчим"
PERFORMER "Триада"
INDEX 01 00:00:00
FILE "07 Записки сумасшедшего.flac" WAVE
TRACK 07 AUDIO
TITLE "Записки сумасшедшего"
PERFORMER "Триада"
INDEX 01 00:00:00
FILE "08 Доброе утро.flac" WAVE
TRACK 08 AUDIO
TITLE "Доброе утро"
PERFORMER "Триада"
INDEX 01 00:00:00
FILE "09 Лебединая.flac" WAVE
TRACK 09 AUDIO
TITLE "Лебединая"
PERFORMER "Триада"
INDEX 01 00:00:00
FILE "10 История одной болезни.flac" WAVE
TRACK 10 AUDIO
TITLE "История одной болезни"
PERFORMER "Триада"
INDEX 01 00:00:00
FILE "11 Белое танго.flac" WAVE
TRACK 11 AUDIO
TITLE "Белое танго"
PERFORMER "Триада"
INDEX 01 00:00:00
FILE "12 Измена.flac" WAVE
TRACK 12 AUDIO
TITLE "Измена"
PERFORMER "Триада"
INDEX 01 00:00:00
FILE "13 Без ума.flac" WAVE
TRACK 13 AUDIO
TITLE "Без ума"
PERFORMER "Триада"
INDEX 01 00:00:00
FILE "14 Бали.flac" WAVE
TRACK 14 AUDIO
TITLE "Бали"
PERFORMER "Триада"
INDEX 01 00:00:00
FILE "15 Школьница.flac" WAVE
TRACK 15 AUDIO
TITLE "Школьница"
PERFORMER "Триада"
INDEX 01 00:00:00
FILE "16 Свет не горит.flac" WAVE
TRACK 16 AUDIO
TITLE "Свет не горит"
PERFORMER "Триада"
INDEX 01 00:00:00
FILE "17 Твой танец.flac" WAVE
TRACK 17 AUDIO
TITLE "Твой танец"
PERFORMER "Триада"
INDEX 01 00:00:00

Лог проверки качества

AUDIOCHECKER v2.0 beta (build 457) - by Dester - opdester@freemail.hu
~~~~~~~~~~~~~~~~~~~~~~~~~~~~~~~~~~
-=== НЕ РЕДАКТИРУЙТЕ ЭТОТ ФАЙЛ! ===-
Путь: ...\Триада - Записки сумaсшедшего (2014, Pronin Management, PM-005)
01 -=- 01 Дежавю.flac -=- MPEG (99%)
02 -=- 02 Утраченные иллюзии.flac -=- MPEG (73%)
03 -=- 03 Белый танец.flac -=- CDDA (87%)
04 -=- 04 Нежный омут.flac -=- MPEG (80%)
05 -=- 05 Закат.flac -=- MPEG (80%)
06 -=- 06 О чём молчим.flac -=- CDDA (92%)
07 -=- 07 Записки сумасшедшего.flac -=- MPEG (93%)
08 -=- 08 Доброе утро.flac -=- CDDA (62%)
09 -=- 09 Лебединая.flac -=- CDDA (42%)
10 -=- 10 История одной болезни.flac -=- MPEG (93%)
11 -=- 11 Белое танго.flac -=- ERROR
12 -=- 12 Измена.flac -=- MPEG (89%)
13 -=- 13 Без ума.flac -=- CDDA (100%)
14 -=- 14 Бали.flac -=- CDDA (100%)
15 -=- 15 Школьница.flac -=- CDDA (100%)
16 -=- 16 Свет не горит.flac -=- CDDA (100%)
17 -=- 17 Твой танец.flac -=- CDDA (100%)
Сводка 54,75% CDDA
198788852

2015 - Третье дыхание

Издатель (лейбл): Студия Союз | Номер по каталогу: SZCD-6730-15-Треклист:
[
[cybertorrent.ru].t16326.torrent 
Торрент: Зарегистрирован [ 2018-02-21 05:29 ] · A49F6DCD3874EC7F9483C9649C730EDBEB20EE83

Скачать .torrent

Скачать

58 KB

Статус: проверено
Скачан: 0 раз
Размер: 3,7 GB
Профиль [ЛС]
Показать сообщения:    

Текущее время: 21-Май 16:30

Часовой пояс: UTC ± 0



Вы не можете начинать темы
Вы не можете отвечать на сообщения
Вы не можете редактировать свои сообщения
Вы не можете удалять свои сообщения
Вы не можете голосовать в опросах
Вы не можете прикреплять файлы к сообщениям
Вы можете скачивать файлы