Статистика раздачи
Размер:  608 MB   |    Зарегистрирован:  5 часов   |    Скачан:  0 раз

Полного источника не было: Никогда

 
   
 
 

dosya ®

Пол:
Не указан
Стаж:
3 дня
Сообщений:
31

Emel Mathlouthi - Ensen
Musique Acoustic от 08.04.2017 - TV5MONDE- Страна: Франция
Жанр: World, Live
Продолжительность: 00:26:51
Год выпуска: 2017 г.
Перевод: Субтитры (перевод К.Семенюк, Éclair Media)
Субтитры: русские, английские, французские, нидерландские, румынские
Режиссер: Филипп Сомме / Philippe SommetОписание: Музыкальная передача Musique Acoustic канала французского телевидения TV5MONDE представляет преимущественно французских же талантливых молодых исполнителей, чье живое выступление в студии без зрителей может состоять из одной или нескольких песен, иногда передача бывает полностью посвящена одному исполнителю, презентующему новый альбом. Musique Acoustic выходит в эфир раз в 1-2 недели. Ведущим передачи c 2006 года является ее создатель - популярный радио – и телеведущий - Sébastien Folin, получивший известность в 2005 году серией из 20 коротких программ для TF1 "Любовь в 20 лет".Сегодня тунисская певица Emel Mathlouthi представляет свой второй альбом Ensen (2017).
Треклист:
01. Fi Kolli Yawmen
02. Lost
03. Ensen Dhaif
04. Layem-Передачи Musique Acoustic-Источник: Hot Bird (13.0°E) TV5MONDE Europe DVB-S
Качество: DVB
Контейнер: MKV
Видео кодек: MPEG2
Аудио кодек: MP2
Видео: MPEG Video 2, 720x576@1024x576 (16:9), 25 fps, ~2909 kbps avg, ~0.281 bit/pixel
Аудио: 48 kHz, MPEG Audio 2, 2 ch, 192.00 kbps avg
Формат субтитров: prerendered (IDX+SUB)

MediaInfo

General
Unique ID : 237274209512795441713718672994848790424 (0xB28159BB3AD58F4896E54006E9C4D798)
Complete name : [apreder]TV5MONDE_Musique_Aqoustic_Emel_Mathlouthi_Ensen(08.04.2017)DVB.mkv
Format : Matroska
Format version : Version 2
File size : 608 MiB
Duration : 26 min 51 s
Overall bit rate mode : Variable
Overall bit rate : 3 164 kb/s
Movie name : Acoustic
Released date : 2017-04-08
Encoded date : UTC 2017-04-10 16:58:43
Writing application : mkvmerge v10.0.0 ('To Drown In You') 64bit
Writing library : libebml v1.3.4 + libmatroska v1.4.5
Cover : Yes
Attachments : cover.jpg / small_cover.jpg
DIRECTOR : Philippe Sommet
GENRE : Music
KEYWORDS : rutracker.org
LAW_RATING : 12+
SUMMARY : Emel Mathlouthi - Ensen
Video
ID : 1
Format : MPEG Video
Format version : Version 2
Format profile : Main@Main
Format settings, BVOP : Yes
Format settings, Matrix : Custom
Format settings, GOP : Variable
Format settings, picture structure : Frame
Codec ID : V_MPEG2
Codec ID/Info : MPEG 1 or 2 Video
Duration : 26 min 51 s
Bit rate mode : Variable
Bit rate : 2 909 kb/s
Width : 720 pixels
Height : 576 pixels
Display aspect ratio : 16:9
Frame rate mode : Constant
Frame rate : 25.000 FPS
Standard : PAL
Color space : YUV
Chroma subsampling : 4:2:0
Bit depth : 8 bits
Scan type : Interlaced
Scan order : Top Field First
Compression mode : Lossy
Bits/(Pixel*Frame) : 0.281
Time code of first frame : 00:00:00:00
Time code source : Group of pictures header
GOP, Open/Closed : Open
GOP, Open/Closed of first frame : Closed
Stream size : 559 MiB (92%)
Default : Yes
Forced : No
Audio
ID : 2
Format : MPEG Audio
Format version : Version 1
Format profile : Layer 2
Mode : Joint stereo
Mode extension : Intensity Stereo + MS Stereo
Codec ID : A_MPEG/L2
Codec ID/Hint : MP2
Duration : 26 min 51 s
Bit rate mode : Constant
Bit rate : 192 kb/s
Channel(s) : 2 channels
Sampling rate : 48.0 kHz
Compression mode : Lossy
Stream size : 36.9 MiB (6%)
Language : French
Default : Yes
Forced : No
Text #1
ID : 3
Format : VobSub
Codec ID : S_VOBSUB
Codec ID/Info : Picture based subtitle format used on DVDs
Language : Russian
Default : No
Forced : No
Text #2
ID : 4
Format : UTF-8
Codec ID : S_TEXT/UTF8
Codec ID/Info : UTF-8 Plain Text
Language : English
Default : No
Forced : No
Text #3
ID : 5
Format : UTF-8
Codec ID : S_TEXT/UTF8
Codec ID/Info : UTF-8 Plain Text
Language : French
Default : No
Forced : No
Text #4
ID : 6
Format : VobSub
Codec ID : S_VOBSUB
Codec ID/Info : Picture based subtitle format used on DVDs
Language : German
Default : No
Forced : No
Text #5
ID : 7
Format : VobSub
Codec ID : S_VOBSUB
Codec ID/Info : Picture based subtitle format used on DVDs
Language : Dutch
Default : No
Forced : No
Text #6
ID : 8
Format : VobSub
Codec ID : S_VOBSUB
Codec ID/Info : Picture based subtitle format used on DVDs
Language : Romanian
Default : No
Forced : No

Скриншоты

Резервные скриншоты

- [3'603]
[cybertorrent.ru].t16998.torrent 
Торрент: Зарегистрирован [ Сегодня, в 12:05 ] · CD727921DDB2D4CB8DE6B235FAC2AF096FBE55A7

Скачать .torrent

Скачать

7 KB

Статус: проверено
Скачан: 0 раз
Размер: 608 MB
terms.php
Профиль [ЛС]
Показать сообщения:    

Текущее время: 21-Фев 17:07

Часовой пояс: UTC ± 0



Вы не можете начинать темы
Вы не можете отвечать на сообщения
Вы не можете редактировать свои сообщения
Вы не можете удалять свои сообщения
Вы не можете голосовать в опросах
Вы не можете прикреплять файлы к сообщениям
Вы можете скачивать файлы