Статистика раздачи
Размер:  700 MB   |    Зарегистрирован:  3 дня   |    Скачан:  0 раз

Полного источника не было: Никогда

 
   
 
 

lopster ®

Пол:
Не указан
Стаж:
3 дня
Сообщений:
509

Связь
Год выпуска: 2006
Жанр: Мелодрама
Продолжительность: 1:20:00
Режиссер: Дуня Смирнова
В ролях: Анна Михалкова, Михаил Пореченков, Ирина Розанова, Леонид Ярмольник, Андрей Прошкин, Алексей Попогребский, Дмитрий Шевченко
Описание: Самые обычные люди. Самая обычная ситуация. Илья живет в Москве, а Нина в Петербурге. У обоих из них семьи, дети, у Ильи – дочь лет двенадцати, у Нины – сын во втором классе. Вроде бы все хорошо: жена Ильи, Маша, красивая, спокойная женщина, у них прекрасная квартира, Илья – владелец двух охотничьих магазинов, и дом что называется полная чаша. Да и Нине не на что жаловаться: ее муж Никита хоть и испытывает некоторые трудности с работой (он художник), но зато взял на себя кучу семейных забот, пока Нина бегает в поисках рекламных контрактов для журнала; он интеллигентный и очень любящий человек. И, тем не менее, у Ильи и Нины роман...
Все раздачи фильма: Связь
Качество: DVDRip
Видео: AVI, 704x304, 25 fps, XviD, VBR 1090 kbit/s
Аудио: 48 kHz, Stereo, MPEG Layer-3, CBR 128 kbit/s

MI

Код:Общее
Полное имя : C:\otkat\Видео\Связь\svyaz.avi
Формат : AVI
Формат/Информация : Audio Video Interleave
Размер файла : 700 Мбайт
Продолжительность : 1 ч. 20 м.
Общий поток : 1223 Кбит/сек
Программа кодирования : VirtualDubMod 1.5.4.1 (build 2178/release)
Библиотека кодирования : VirtualDubMod build 2178/release
Видео
Идентификатор : 0
Формат : MPEG-4 Visual
Профиль формата : Advanced Simple@L5
Параметр BVOP формата : 1
Параметр QPel формата : Нет
Параметр GMC формата : Без точки перехода
Параметр матрицы формата : Выборочная
Идентификатор кодека : XVID
Идентификатор кодека/Подсказка : XviD
Продолжительность : 1 ч. 20 м.
Битрейт : 1088 Кбит/сек
Ширина : 704 пикселя
Высота : 304 пикселя
Соотношение сторон : 2,35:1
Частота кадров : 25,000 кадров/сек
Цветовое пространство : YUV
Субдискретизация насыщенности : 4:2:0
Битовая глубина : 8 бит
Тип развёртки : Прогрессивная
Метод сжатия : С потерями
Бит/(Пиксели*Кадры) : 0.203
Размер потока : 623 Мбайт (89%)
Библиотека кодирования : XviD 1.1.0 (UTC 2005-11-22)
Аудио
Идентификатор : 1
Формат : MPEG Audio
Версия формата : Version 1
Профиль формата : Layer 3
Режим : Joint stereo
Расширение режима : MS Stereo
Идентификатор кодека : 55
Идентификатор кодека/Подсказка : MP3
Продолжительность : 1 ч. 20 м.
Вид битрейта : Постоянный
Битрейт : 128 Кбит/сек
Каналы : 2 канала
Частота : 48,0 КГц
Метод сжатия : С потерями
Размер потока : 73,2 Мбайт (10%)
Выравнивание : Соединение по промежуткам
Продолжительность промежутка : 80 мс. (2,00 видеокадра)
Время предзагрузки промежутка : 504 мс.
Библиотека кодирования : LAME3.97b
Настройки программы : -m j -V 4 -q 2 -lowpass 17 -b 128
Язык : Russian

Скриншоты:


[cybertorrent.ru].t20.torrent 
Торрент: Зарегистрирован [ 2018-02-15 13:57 ] · 53E6AEF4DE9906064F752EC9EFD3D450B3FD4732

Скачать .torrent

Скачать

14 KB

Статус: проверено
Скачан: 0 раз
Размер: 700 MB
terms.php
Профиль [ЛС]
Показать сообщения:    

Текущее время: 19-Фев 07:40

Часовой пояс: UTC ± 0



Вы не можете начинать темы
Вы не можете отвечать на сообщения
Вы не можете редактировать свои сообщения
Вы не можете удалять свои сообщения
Вы не можете голосовать в опросах
Вы не можете прикреплять файлы к сообщениям
Вы можете скачивать файлы