Статистика раздачи
Размер:  417 MB   |    Зарегистрирован:  3 месяца 4 дня   |    Скачан:  0 раз

Полного источника не было: Никогда

 
   
 
 

Tony ®

Пол:
Не указан
Стаж:
3 месяца 8 дней
Сообщений:
206

Bednarek / List [official music video]- -Жанр: Pop, Reggae
Продолжительность: 00:03:42
Год выпуска: 2016
Страна: Poland (Польша)
-Доп. информация: рип с vimeo-Качество: WebDL
Разрешение видео/развертка: 1080p
Контейнер: MP4
Видео кодек: AVC
Аудио кодек: AAC
Видео: AVC, 1920x1080 (16:9), 25.000 fps, 15.4 Mbps (0.297 bit/pixel)
Аудио: AAC LC, 48.0 KHz, 2 ch, 317 Kbps, VBR (English)
--(Reggae) Bednarek - Jestem... - 2012, FLAC (tracks+.cue), lossless

Отчёт MediaInfo / BDInfo

Общее
Полное имя : D:\Video\Bednarek - List (2016)[official music video].mp4
Формат : MPEG-4
Профиль формата : Base Media / Version 2
Идентификатор кодека : mp42 (mp42/mp41)
Размер файла : 417 Мбайт
Продолжительность : 3 м. 42 с.
Режим общего битрейта : Переменный
Общий поток : 15,7 Мбит/сек
Дата кодирования : UTC 2016-05-26 05:37:20
Дата пометки : UTC 2016-05-26 05:37:27
©TIM : 00:00:00:00
©TSC : 25
©TSZ : 1
Видео
Идентификатор : 1
Формат : AVC
Формат/Информация : Advanced Video Codec
Профиль формата : High@L4.2
Параметр CABAC формата : Да
Параметр ReFrames формата : 3 кадра
Параметр GOP формата : M=3, N=25
Идентификатор кодека : avc1
Идентификатор кодека/Информация : Advanced Video Coding
Продолжительность : 3 м. 42 с.
Вид битрейта : Переменный
Битрейт : 15,4 Мбит/сек
Максимальный битрейт : 16,0 Мбит/сек
Ширина : 1920 пикселей
Высота : 1080 пикселей
Соотношение сторон : 16:9
Режим частоты кадров : Постоянный
Частота кадров : 25,000 кадров/сек
Стандарт вещания : PAL
Цветовое пространство : YUV
Субдискретизация насыщенности : 4:2:0
Битовая глубина : 8 бит
Тип развёртки : Прогрессивная
Бит/(Пиксели*Кадры) : 0.297
Размер потока : 408 Мбайт (98%)
Язык : English
Дата кодирования : UTC 2016-05-26 05:37:20
Дата пометки : UTC 2016-05-26 05:37:20
Цветовой диапазон : Limited
Основные цвета : BT.709
Характеристики трансфера : BT.709
Коэффициенты матрицы : BT.709
Аудио
Идентификатор : 2
Формат : AAC
Формат/Информация : Advanced Audio Codec
Профиль формата : LC
Идентификатор кодека : 40
Продолжительность : 3 м. 42 с.
Продолжительность оригинала : 3 м. 42 с.
Вид битрейта : Переменный
Битрейт : 317 Кбит/сек
Максимальный битрейт : 411 Кбит/сек
Каналы : 2 канала
Расположение каналов : Front: L R
Частота : 48,0 КГц
Частота кадров : 46,875 кадров/сек (1024 spf)
Метод сжатия : С потерями
Размер потока : 8,41 Мбайт (2%)
Размер потока оригинала : 8,42 Мбайт (2%)
Язык : English
Дата кодирования : UTC 2016-05-26 05:37:20
Дата пометки : UTC 2016-05-26 05:37:20

Скриншоты / .png




[cybertorrent.ru].t20361.torrent 
Торрент: Зарегистрирован [ 2018-02-22 04:30 ] · 81351BD006BF770AC259E3BFA774F47E2C81DF11

Скачать .torrent

Скачать

17 KB

Статус: проверено
Скачан: 0 раз
Размер: 417 MB
Профиль [ЛС]
Показать сообщения:    

Текущее время: 26-Май 19:55

Часовой пояс: UTC ± 0



Вы не можете начинать темы
Вы не можете отвечать на сообщения
Вы не можете редактировать свои сообщения
Вы не можете удалять свои сообщения
Вы не можете голосовать в опросах
Вы не можете прикреплять файлы к сообщениям
Вы можете скачивать файлы