Статистика раздачи
Размер:  329 MB   |    Зарегистрирован:  3 месяца 4 дня   |    Скачан:  0 раз

Полного источника не было: Никогда

Личеров:  1  [  0 KB/s  ]  
 
   
 
 

Slava ®

Пол:
Не указан
Стаж:
3 месяца 8 дней
Сообщений:
153

386 DX
the best of

Жанр: cyber punk rock
Страна-производитель диска: Австрия
Год издания диска: 2001
Издатель: Staalplaat · Номер по каталогу: stcd 144
Страна исполнителя: РФ
Аудиокодек: FLAC · Тип рипа: tracks+.cue · Битрейт аудио: lossless
Продолжительность: 00:53:27
Источник: CD · Сканы в раздаче есть
Треклист:
01. california dreaming (3:00)
02. jumpin’ jack flash (1:57)
03. should i stay or should i go (2:42)
04. house of the rising sun (4:34)
05. rock’n’roll (3:51)
06. light my fire (3:12)
07. anarchy in the uk (3:24)
08. don’t cry (4:39)
09. my generation (3:15)
10. purple haze (2:45)
11. imagine (3:08)
12. smells like teen spirit (4:15)
13. i shot the sherrif (4:32)
14. satisfaction (3:31)
15. layla (4:43)

Лог создания рипа

Exact Audio Copy V1.1 from 23. June 2015
EAC extraction logfile from 20. August 2016, 0:46
386 DX / The Best Of
Used drive : TSSTcorpCDDVDW TS-L633C Adapter: 1 ID: 1
Read mode : Secure
Utilize accurate stream : Yes
Defeat audio cache : Yes
Make use of C2 pointers : No
Read offset correction : 6
Overread into Lead-In and Lead-Out : No
Fill up missing offset samples with silence : Yes
Delete leading and trailing silent blocks : No
Null samples used in CRC calculations : Yes
Used interface : Native Win32 interface for Win NT & 2000
Gap handling : Appended to previous track
Used output format : User Defined Encoder
Selected bitrate : 128 kBit/s
Quality : High
Add ID3 tag : No
Command line compressor : C:\Program Files (x86)\Exact Audio Copy\Flac\flac.exe
Additional command line options : -8 -e -V -T "ARTIST=%artist%" -T "TITLE=%title%" -T "ALBUM=%albumtitle%" -T "DATE=%year%" -T "TRACKNUMBER=%tracknr%" -T "GENRE=%genre%" -T "PERFORMER=%albuminterpret%" -T "COMPOSER=%composer%" %haslyrics%--tag-from-file=LYRICS="%lyricsfile%"%haslyrics% -T "ALBUMARTIST=%albumartist%" -T "DISCNUMBER=%cdnumber%" -T "TOTALDISCS=%totalcds%" -T "TOTALTRACKS=%numtracks%" -T "COMMENT=%comment%" %source% -o %dest%
TOC of the extracted CD
Track | Start | Length | Start sector | End sector
---------------------------------------------------------
1 | 0:00.00 | 2:59.44 | 0 | 13468
2 | 2:59.44 | 1:57.21 | 13469 | 22264
3 | 4:56.65 | 2:42.06 | 22265 | 34420
4 | 7:38.71 | 4:33.69 | 34421 | 54964
5 | 12:12.65 | 3:50.43 | 54965 | 72257
6 | 16:03.33 | 3:12.26 | 72258 | 86683
7 | 19:15.59 | 3:23.66 | 86684 | 101974
8 | 22:39.50 | 4:39.02 | 101975 | 122901
9 | 27:18.52 | 3:14.60 | 122902 | 137511
10 | 30:33.37 | 2:45.00 | 137512 | 149886
11 | 33:18.37 | 3:07.52 | 149887 | 163963
12 | 36:26.14 | 4:15.27 | 163964 | 183115
13 | 40:41.41 | 4:32.15 | 183116 | 203530
14 | 45:13.56 | 3:30.52 | 203531 | 219332
15 | 48:44.33 | 4:43.02 | 219333 | 240559
16 | 55:59.35 | 3:34.00 | 251960 | 268009
Track 1
Filename C:\EAC\386dxtry2\01 - California Dreaming.wav
Pre-gap length 0:00:02.00
Peak level 100.0 %
Extraction speed 1.9 X
Track quality 99.9 %
Test CRC 8AA08E6C
Copy CRC 8AA08E6C
Track not present in AccurateRip database
Copy OK
Track 2
Filename C:\EAC\386dxtry2\02 - Jumpin' Jack Flash.wav
Peak level 100.0 %
Extraction speed 2.3 X
Track quality 100.0 %
Test CRC 00E0317A
Copy CRC 00E0317A
Track not present in AccurateRip database
Copy OK
Track 3
Filename C:\EAC\386dxtry2\03 - Should I Stay or Should I Go.wav
Peak level 100.0 %
Extraction speed 2.6 X
Track quality 100.0 %
Test CRC B7ED9C63
Copy CRC B7ED9C63
Track not present in AccurateRip database
Copy OK
Track 4
Filename C:\EAC\386dxtry2\04 - House of the Rising Sun.wav
Peak level 100.0 %
Extraction speed 3.0 X
Track quality 100.0 %
Test CRC F4A9AA4D
Copy CRC F4A9AA4D
Track not present in AccurateRip database
Copy OK
Track 5
Filename C:\EAC\386dxtry2\05 - Rock 'n' Roll.wav
Peak level 100.0 %
Extraction speed 3.2 X
Track quality 100.0 %
Test CRC F992C158
Copy CRC F992C158
Track not present in AccurateRip database
Copy OK
Track 6
Filename C:\EAC\386dxtry2\06 - Light My Fire.wav
Peak level 100.0 %
Extraction speed 3.3 X
Track quality 100.0 %
Test CRC 8A0AA7B6
Copy CRC 8A0AA7B6
Track not present in AccurateRip database
Copy OK
Track 7
Filename C:\EAC\386dxtry2\07 - Anarchy in the UK.wav
Peak level 100.0 %
Extraction speed 3.4 X
Track quality 100.0 %
Test CRC 5E4A4F1B
Copy CRC 5E4A4F1B
Track not present in AccurateRip database
Copy OK
Track 8
Filename C:\EAC\386dxtry2\08 - Don't Cry.wav
Peak level 100.0 %
Extraction speed 3.8 X
Track quality 100.0 %
Test CRC 943B8FF4
Copy CRC 943B8FF4
Track not present in AccurateRip database
Copy OK
Track 9
Filename C:\EAC\386dxtry2\09 - My Generation.wav
Peak level 100.0 %
Extraction speed 3.7 X
Track quality 100.0 %
Test CRC 06EB58DE
Copy CRC 06EB58DE
Track not present in AccurateRip database
Copy OK
Track 10
Filename C:\EAC\386dxtry2\10 - Purple Haze.wav
Peak level 100.0 %
Extraction speed 2.9 X
Track quality 99.9 %
Test CRC 4E86D722
Copy CRC 4E86D722
Track not present in AccurateRip database
Copy OK
Track 11
Filename C:\EAC\386dxtry2\11 - Imagine.wav
Peak level 100.0 %
Extraction speed 3.9 X
Track quality 100.0 %
Test CRC CD767068
Copy CRC CD767068
Track not present in AccurateRip database
Copy OK
Track 12
Filename C:\EAC\386dxtry2\12 - Smells Like Teen Spirit.wav
Peak level 100.0 %
Extraction speed 4.3 X
Track quality 100.0 %
Test CRC C137AE86
Copy CRC C137AE86
Track not present in AccurateRip database
Copy OK
Track 13
Filename C:\EAC\386dxtry2\13 - I Shot the Sherrif.wav
Peak level 100.0 %
Extraction speed 4.5 X
Track quality 100.0 %
Test CRC F0AC9D4E
Copy CRC F0AC9D4E
Track not present in AccurateRip database
Copy OK
Track 14
Filename C:\EAC\386dxtry2\14 - Satisfaction.wav
Peak level 100.0 %
Extraction speed 4.4 X
Track quality 100.0 %
Test CRC DC1FDD62
Copy CRC DC1FDD62
Track not present in AccurateRip database
Copy OK
Track 15
Filename C:\EAC\386dxtry2\15 - Layla.wav
Peak level 100.0 %
Extraction speed 4.7 X
Track quality 100.0 %
Test CRC 0EFF7151
Copy CRC 0EFF7151
Track not present in AccurateRip database
Copy OK
None of the tracks are present in the AccurateRip database
No errors occurred
End of status report
---- CUETools DB Plugin V2.1.6
[CTDB TOCID: 79vNTEK6bf0oteLv4Q4vez5vghU-] found
Submit result: 79vNTEK6bf0oteLv4Q4vez5vghU- has been confirmed
Track | CTDB Status
1 | (1/1) Accurately ripped
2 | (1/1) Accurately ripped
3 | (1/1) Accurately ripped
4 | (1/1) Accurately ripped
5 | (1/1) Accurately ripped
6 | (1/1) Accurately ripped
7 | (1/1) Accurately ripped
8 | (1/1) Accurately ripped
9 | (1/1) Accurately ripped
10 | (1/1) Accurately ripped
11 | (1/1) Accurately ripped
12 | (1/1) Accurately ripped
13 | (1/1) Accurately ripped
14 | (1/1) Accurately ripped
15 | (1/1) Accurately ripped
==== Log checksum 60586A2FF6C7D97EA4DA0C43B2669CC33A19C74BF70B24E0DB7585E35BAA23F7 ====

Содержание индексной карты (.CUE)

REM DATE 2001
REM DISCID D10DF510
REM COMMENT "ExactAudioCopy v1.1"
PERFORMER "386 DX"
TITLE "the best of"
FILE "01. california dreaming.wav" WAVE
TRACK 01 AUDIO
TITLE "california dreaming"
PERFORMER "386 DX"
INDEX 01 00:00:00
FILE "02. jumpin’ jack flash.wav" WAVE
TRACK 02 AUDIO
TITLE "jumpin’ jack flash"
PERFORMER "386 DX"
INDEX 01 00:00:00
FILE "03. should i stay or should i go.wav" WAVE
TRACK 03 AUDIO
TITLE "should i stay or should i go"
PERFORMER "386 DX"
INDEX 01 00:00:00
FILE "04. house of the rising sun.wav" WAVE
TRACK 04 AUDIO
TITLE "house of the rising sun"
PERFORMER "386 DX"
INDEX 01 00:00:00
FILE "05. rock’n’roll.wav" WAVE
TRACK 05 AUDIO
TITLE "rock’n’roll"
PERFORMER "386 DX"
INDEX 01 00:00:00
FILE "06. light my fire.wav" WAVE
TRACK 06 AUDIO
TITLE "light my fire"
PERFORMER "386 DX"
INDEX 01 00:00:00
FILE "07. anarchy in the uk.wav" WAVE
TRACK 07 AUDIO
TITLE "anarchy in the uk"
PERFORMER "386 DX"
INDEX 01 00:00:00
FILE "08. don’t cry.wav" WAVE
TRACK 08 AUDIO
TITLE "don’t cry"
PERFORMER "386 DX"
INDEX 01 00:00:00
FILE "09. my generation.wav" WAVE
TRACK 09 AUDIO
TITLE "my generation"
PERFORMER "386 DX"
INDEX 01 00:00:00
FILE "10. purple haze.wav" WAVE
TRACK 10 AUDIO
TITLE "purple haze"
PERFORMER "386 DX"
INDEX 01 00:00:00
FILE "11. imagine.wav" WAVE
TRACK 11 AUDIO
TITLE "imagine"
PERFORMER "386 DX"
INDEX 01 00:00:00
FILE "12. smells like teen spirit.wav" WAVE
TRACK 12 AUDIO
TITLE "smells like teen spirit"
PERFORMER "386 DX"
INDEX 01 00:00:00
FILE "13. i shot the sherrif.wav" WAVE
TRACK 13 AUDIO
TITLE "i shot the sherrif"
PERFORMER "386 DX"
INDEX 01 00:00:00
FILE "14. satisfaction.wav" WAVE
TRACK 14 AUDIO
TITLE "satisfaction"
PERFORMER "386 DX"
INDEX 01 00:00:00
FILE "15. layla.wav" WAVE
TRACK 15 AUDIO
TITLE "layla"
PERFORMER "386 DX"
INDEX 01 00:00:00
[cybertorrent.ru].t20371.torrent 
Торрент: Зарегистрирован [ 2018-02-22 04:30 ] · 11A836F37BF83E5C8B28B06D4D7FAB8D704F58F1

Скачать .torrent

Скачать

15 KB

Статус: проверено
Скачан: 0 раз
Размер: 329 MB
Профиль [ЛС]
Показать сообщения:    

Текущее время: 26-Май 19:56

Часовой пояс: UTC ± 0



Вы не можете начинать темы
Вы не можете отвечать на сообщения
Вы не можете редактировать свои сообщения
Вы не можете удалять свои сообщения
Вы не можете голосовать в опросах
Вы не можете прикреплять файлы к сообщениям
Вы можете скачивать файлы