Статистика раздачи
Размер:  1,45 GB   |    Зарегистрирован:  3 месяца 4 дня   |    Скачан:  0 раз
Сидов:  2  [  0 KB/s  ]  
 
   
 
 

Dominion ®

Пол:
Мужской
Стаж:
3 месяца 8 дней
Сообщений:
556

Богиня любви / Goddess of Love
Страна: США, Канада
Студия: Dalia Films
Жанр: Триллер, драма, детектив
Год выпуска: 2015
Продолжительность: 01:30:57
Перевод: Авторский (одноголосый закадровый) Антон Карповский
Субтитры: нет
Оригинальная аудиодорожка: нет
Режиссер: Джон Наутц / Jon Knautz
В ролях: Алексис Найт, Кристофер Найсмит, Элизабет Сэнди, Монда Скотт, Хью Уэстборн, Ричард Вилтон, Анна Логан, Рэй Грэйди, Ренда Мишалани, Дэйли Бранденбург, Рэйчел Элиг, Деана Рикс, Джанет Петерс, Терренс Уэнц, Катрина Элизабет, Грэйс ДиМарко, Кэндис Камилла, Кендалл Фут, Джеймс Делой Скотт, Уилл Леон, Майкл Сильва, Эмили Лоуренс
Описание: Главная героиня Винус названная в честь Венеры Милосской, - экзальтированная, творческая с обострённым восприятием женщина, которая не находит себя в жизни. Будучи выпускницей балетной школы в Париже, она вынуждена работать стриптизёршей, нарушая все мыслимые правила этой профессии. Винус влюбляется в одного из своих посетителей, - австралийского фотографа Брайана и скоро выясняется, что ему она нужна в качестве живого напоминания о покойной жене, на которую Винус похожа как две капли воды...
Дополнительная информация:
Автор релиза -
Заказ перевода у Антона Карповского (апрель 2017) - ylnian
За сборку дороги спасибо rammzez
Источник для рипа - Blu-Ray (HK) - Goddess.of.Love.2015.HK.Blu-ray.1080p.AVC.TrueHD.5.1-TTG
Описание - из рецензии Антона Карповского
Рекламы нет!


Сэмпл: https://yadi.sk/i/BSvteI0C3JGyoZ
Качество видео: BDRip
Формат видео: AVI
Видео: XviD, 720x304 (2,35:1), 23.976 fps, 1828 kbps, 0.348 bit/pixel
Аудио: Русский AC3, 48000 Гц, 6ch, 448 kbps

MediaInfo

Общее
Полное имя : D:\Goddess.of.Love.2015.BDRip-ylnian.avi
Формат : AVI
Формат/Информация : Audio Video Interleave
Размер файла : 1,45 Гбайт
Продолжительность : 1 ч. 30 м.
Общий поток : 2285 Кбит/сек
Название фильма : Goddess of Love - 2015 - BDRip - ylnian
Программа кодирования : VirtualDubMod 1.5.10.2 (build 2540/release)
Библиотека кодирования : VirtualDubMod build 2540/release
Видео
Идентификатор : 0
Формат : MPEG-4 Visual
Профиль формата : Advanced Simple@L5
Параметр BVOP формата : 1
Параметр QPel формата : Нет
Параметр GMC формата : Без точки перехода
Параметр матрицы формата : Default (MPEG)
Идентификатор кодека : XVID
Идентификатор кодека/Подсказка : XviD
Продолжительность : 1 ч. 30 м.
Битрейт : 1828 Кбит/сек
Ширина : 720 пикселей
Высота : 304 пикселя
Соотношение сторон : 2,35:1
Частота кадров : 23,976 (24000/1001) кадра/сек
Цветовое пространство : YUV
Субдискретизация насыщенности : 4:2:0
Битовая глубина : 8 бит
Тип развёртки : Прогрессивная
Метод сжатия : С потерями
Бит/(Пиксели*Кадры) : 0.348
Размер потока : 1,16 Гбайт (80%)
Библиотека кодирования : XviD 67
Аудио
Идентификатор : 1
Формат : AC-3
Формат/Информация : Audio Coding 3
Параметр Endianness формата : Big
Идентификатор кодека : 2000
Продолжительность : 1 ч. 30 м.
Вид битрейта : Постоянный
Битрейт : 448 Кбит/сек
Каналы : 6 каналов
Расположение каналов : Front: L C R, Side: L R, LFE
Частота : 48,0 КГц
Частота кадров : 31,250 кадров/сек (1536 spf)
Битовая глубина : 16 бит
Метод сжатия : С потерями
Размер потока : 291 Мбайт (20%)
Выравнивание : Разделение по промежуткам
Продолжительность промежутка : 42 мс. (1,00 видеокадр)
Время предзагрузки промежутка : 500 мс.
Заголовок : AVO - Karpovsky
ServiceKind/String : Complete Main
[cybertorrent.ru].t20378.torrent 
Торрент: Зарегистрирован [ 2018-02-22 04:30 ] · 80CDEA6242EEC9AEB05DD67FA8A18AD143763E08

Скачать .torrent

Скачать

15 KB

Статус: проверено
Скачан: 0 раз
Размер: 1,45 GB
Профиль [ЛС]
Показать сообщения:    

Текущее время: 26-Май 19:56

Часовой пояс: UTC ± 0



Вы не можете начинать темы
Вы не можете отвечать на сообщения
Вы не можете редактировать свои сообщения
Вы не можете удалять свои сообщения
Вы не можете голосовать в опросах
Вы не можете прикреплять файлы к сообщениям
Вы можете скачивать файлы