Статистика раздачи
Размер:  18,63 GB   |    Зарегистрирован:  3 месяца 5 дней   |    Скачан:  0 раз

Полного источника не было: Никогда

 
   
 
 

Domino ®

Пол:
Не указан
Стаж:
3 месяца 6 дней
Сообщений:
214

Игра в бисер с Игорем Волгиным
Дата/Год выпуска: 2016 - 2017
Страна: Россия
Жанр: Ток-шоу
Продолжительность: ~ 00:39:00 выпуск
Перевод: Не требуется
Оригинальная аудиодорожка: нет
Режиссер: Андрей Туринов
Телеканал: Россия Культура
Описание: Ведущий ток-шоу Игорь Волгин приглашает поучастовать в своеобразной игре для всех, кто воспринимает мировую литературу как уже написанную книгу, которую никто и никогда не постигнет до конца, и, тем не менее, каждое новое прочтение удивительно.
Когда мы говорим, что классика всегда современна, мы не задумываемся, что именно в созданном десятилетия, а то и века назад художественном произведении созвучно дню сегодняшнему, представлению современного человека о себе самом. Участники ток-шоу "Игра в бисер" с Игорем Волгиным пытаются найти ответы на этот вопрос и, заглянув в лучшие образцы мировой литературы, понять - кто мы и что мы.
Доп. информация: Все раздачи программы http://cybertorrent.ru/tracker.php?nm=%D0%98%D0%B3%D1%80%D0%B0%20%D0%B2%20%D0...0%BD%D1%8B%D0%BC
качество: DVB
формат: MPG
Видео: MPEG-PS, 768@720x576, 4:3, 2652 kbps, 0.256 bit/pixel, 25 fps
Аудио: MPEG-1 Layer 2, 192 Кбит/сек, 48000Hz 2 ch

Список выпусков/серий

2016-09-24. Поэзия Николая Гумилева
2016-10-01. Н.М. Карамзин - Бедная Лиза
2016-10-08. Поэзия Саши Черного
2016-10-15. Юрий Олеша - Три толстяка
2016-10-22. Э. Хемингуэй - По ком звонит колокол
2016-10-29. В. Маяковский - Баня
2016-11-05. М.А. Булгаков - Собачье сердце
2016-11-19. Слово о полку Игореве
2016-11-26. Фазиль Искандер - Кролики и удавы
2016-12-03. Артур Конан Дойл - Собака Баскервилей
2015-12-13. Поэзия Федора Тютчева
2016-12-20. А.П. Чехов - Человек в футляре
2017-01-17. И.А. Бунин - Митина любовь
2017-01-24. Поэзия Владимира Высоцкого
2017-01-31. Ги де Мопассан - Пышка
2017-02-07. Ф.М. Достоевский - Бобок
2017-02-14. Корней Чуковский - Стихи для детей
2017-02-21. Н.В. Гоголь - Нос
2017-03-07. Генрих Белль - Бильярд в половине десятого
2017-03-21. А.Н. Толстой - Аэлита
2017-03-28. Сочинения Козьмы Пруткова
2017-04-11. Джером К. Джером - Трое в одной лодке...
2017-04-18. А.С. Пушкин - Полтава
2017-04-25. Анатолий Рыбаков - Кортик
2017-05-23. Пьер-Огюстен Карон де Бомарше - Безумный день, или Женитьба Фигаро
2017-05-30. Константин Паустовский - Золотая роза

MediaInfo

Общее
Полное имя : D:\Библиотеки\Видео\Игра в бисер c Игорем Волгиным. Сезон 2016-2017\2016-09-10. Поэзия Игоря Северянина.mpg
Формат : MPEG-PS
Размер файла : 810 Мбайт
Продолжительность : 39 м.
Режим общего битрейта : Переменный
Общий поток : 2902 Кбит/сек
Библиотека кодирования : (c) 1998-2009 Womble Multimedia, Inc. / MPEG Video Wizard (03/2009) / Jun 24 2009
Видео
Идентификатор : 224 (0xE0)
Формат : MPEG Video
Версия формата : Version 2
Профиль формата : Main@Main
Параметр BVOP формата : Да
Параметр матрицы формата : Выборочная
Параметр GOP формата : Variable
Format_Settings_PictureStructure : Frame
Продолжительность : 39 м.
Вид битрейта : Переменный
Битрейт : 2652 Кбит/сек
Максимальный битрейт : 15,0 Мбит/сек
Ширина : 720 пикселей
Высота : 576 пикселей
Соотношение сторон : 4:3
Частота кадров : 25,000 кадров/сек
Стандарт вещания : PAL
Цветовое пространство : YUV
Субдискретизация насыщенности : 4:2:0
Битовая глубина : 8 бит
Тип развёртки : Чересстрочная
Порядок развёртки : Верхнее поле первое
Метод сжатия : С потерями
Бит/(Пиксели*Кадры) : 0.256
Временной код первого кадра : 00:00:00:00
Оригинал временного кода : Group of pictures header
Размер потока : 740 Мбайт (91%)
Библиотека кодирования : (c) 1998-2009 Womble Multimedia, Inc. / MPEG Video Wizard (03/2009) / Jun 24 2009
Аудио
Идентификатор : 192 (0xC0)
Формат : MPEG Audio
Версия формата : Version 1
Профиль формата : Layer 2
Продолжительность : 39 м.
Вид битрейта : Постоянный
Битрейт : 192 Кбит/сек
Каналы : 2 канала
Частота : 48,0 КГц
Метод сжатия : С потерями
Размер потока : 53,6 Мбайт (7%)

Скриншоты

Внимание! Раздача ведётся путём добавления новых выпусков

Внимание! Раздача ведётся путём добавления новых выпусков; при каждом добавлении создаётся новый торрент. Чтобы начать докачку нового выпуска, пользователям необходимо сделать следующее:
(1) остановить скачивание,
(2) удалить старый торрент у себя из клиента (старые серии удалять не надо),
(3) скачать новый торрент и запустить его у себя в клиенте вместо старого, при этом указать клиенту путь в старую папку куда и должно происходить скачивание новых выпусков.
Ваш клиент при этом должен произвести хеширование (проверку) старой папки (если не производит сам - помогите ему сделать это). В результате он будет докачивать только те выпуски, которых у Вас ещё нет. Старые выпуски при этом не удаляются, а продолжают раздаваться!
Eсли Вы уже удалили старые выпуски, то предотвратить их повторную закачку можно, сняв галочки в соответствующих местах при запуске нового торрента. По возможности, желательно не удалять старые выпуски как можно дольше, чтобы релизёр не только продолжал раздавать старые выпуски, но и смог сконцентрироваться на новых.
[cybertorrent.ru].t2806.torrent 
Торрент: Зарегистрирован [ 2018-02-16 14:35 ] · EF7C856445160DDB5B4EA40CDBF70E374F428478

Скачать .torrent

Скачать

96 KB

Статус: проверено
Скачан: 0 раз
Размер: 18,63 GB
Профиль [ЛС]
Показать сообщения:    

Текущее время: 21-Май 16:31

Часовой пояс: UTC ± 0



Вы не можете начинать темы
Вы не можете отвечать на сообщения
Вы не можете редактировать свои сообщения
Вы не можете удалять свои сообщения
Вы не можете голосовать в опросах
Вы не можете прикреплять файлы к сообщениям
Вы можете скачивать файлы