Статистика раздачи
Размер:  1,46 GB   |    Зарегистрирован:  4 дня   |    Скачан:  0 раз

Полного источника не было: Никогда

 
   
 
 

kersti ®

Пол:
Не указан
Стаж:
6 дней
Сообщений:
168

ПостКВН. Вечерний квартал / Выпуск 103. В Киеве 2017, Часть 2 WEBRip 1080p
Дата/Год выпуска: 28.10.2017
Страна: Украина
Жанр: Юмористическое шоу, концерт, сатира
Продолжительность: 01:12:29
Перевод: Не требуется
Русские субтитры: нет
Оригинальная аудиодорожка: русский, украинский (~95/5)
Режиссер: Студия "95 квартал"
Телеканал: Телеканал 1+1
Описание: Ребята из "Вечернего квартала" продолжают устанавливать свои правила. И ни авторитет звезд шоу-бизнеса, ни статус влиятельных политиков, ни сам "президент Украины" не могут этому помешать. Здесь правила одни для всех, и "квартальщики" внимательно следят за тем, чтобы все "забавные законы" соблюдались. Злостных правонарушителей ребята из Квартала определяют по отсутствию улыбки на лице. Но в сегодня такие вряд ли найдутся, ведь у нас - юмор высшего класса от "Вечернего квартала".
Качество: WEBRip
Формат: MKV
Видео: MPEG4 Video (H264), 1920x1080, 25fps, 16:9, 2879 kbps
Аудио: 44,1 kHz, AAC, 2 ch, 126 kbps

Список выпусков/серий

Hello, містер Путін - Музыкальный Вечерний Квартал
Погудим, курва! Рэп батл с ТНМК на Сербском Телевидении
Человек из Винницы - Валерий Жидков (Тамбовский Волк)
Сочиняем рифмы на ходу - Оля Полякова и Владимир Зеленский
Солдат ребенка не обидит - секс по телефону с Н. Савченко
Номер на бис - Кличко VS Парубий на Дог-шоу
Первая брачная ночь - когда далеко за тридцать
Проблемы Квартала на примере группы Машина Времени
Країна сильних людей - финальная песня

MediaInfo

Полное имя : D:\Торренты\Вечерний квартал (28.10.2017)\Вечерний квартал (28.10.2017).mkv
Формат : Matroska
Версия формата : Version 4 / Version 2
Размер файла : 1,46 Гбайт
Продолжительность : 1 ч. 12 м.
Общий поток : 2879 Кбит/сек
Дата кодирования : UTC 2017-10-29 14:48:59
Программа кодирования : mkvmerge v8.1.0 ('Psychedelic Postcard') 64bit
Библиотека кодирования : libebml v1.3.1 + libmatroska v1.4.2
Видео
Идентификатор : 1
Формат : AVC
Формат/Информация : Advanced Video Codec
Профиль формата : High@L4
Параметр CABAC формата : Да
Параметр ReFrames формата : 3 кадра
Идентификатор кодека : V_MPEG4/ISO/AVC
Продолжительность : 1 ч. 12 м.
Битрейт : 2751 Кбит/сек
Ширина : 1920 пикселей
Высота : 1080 пикселей
Соотношение сторон : 16:9
Режим частоты кадров : Постоянный
Частота кадров : 25,000 кадров/сек
Цветовое пространство : YUV
Субдискретизация насыщенности : 4:2:0
Битовая глубина : 8 бит
Тип развёртки : Прогрессивная
Бит/(Пиксели*Кадры) : 0.053
Размер потока : 1,39 Гбайт (96%)
Default : Да
Forced : Нет
Цветовой диапазон : Limited
Основные цвета : BT.709
Характеристики трансфера : BT.709
Коэффициенты матрицы : BT.709
Аудио
Идентификатор : 2
Формат : AAC
Формат/Информация : Advanced Audio Codec
Профиль формата : LC
Идентификатор кодека : A_AAC
Продолжительность : 1 ч. 12 м.
Битрейт : 126 Кбит/сек
Каналы : 2 канала
Расположение каналов : Front: L R
Частота : 44,1 КГц
Частота кадров : 43,066 кадра/сек (1024 spf)
Метод сжатия : С потерями
Размер потока : 65,1 Мбайт (4%)
Заголовок : rus+ukr
Язык : Russian
Default : Да
Forced : Нет

Скриншоты

[cybertorrent.ru].t3531.torrent 
Торрент: Зарегистрирован [ 2018-02-16 23:01 ] · AC4DF10B5AA184082EB30E1BD03BD2A805785EC8

Скачать .torrent

Скачать

15 KB

Статус: проверено
Скачан: 0 раз
Размер: 1,46 GB
terms.php
Профиль [ЛС]
Показать сообщения:    

Текущее время: 21-Фев 19:07

Часовой пояс: UTC ± 0



Вы не можете начинать темы
Вы не можете отвечать на сообщения
Вы не можете редактировать свои сообщения
Вы не можете удалять свои сообщения
Вы не можете голосовать в опросах
Вы не можете прикреплять файлы к сообщениям
Вы можете скачивать файлы