Статистика раздачи
Размер:  309 MB   |    Зарегистрирован:  6 месяцев 4 дня   |    Скачан:  0 раз

Полного источника не было: Никогда

 
   
 
 

kersti ®

Пол:
Не указан
Стаж:
6 месяцев 5 дней
Сообщений:
161

Фантастическое Путешествие / Fantastyczna Podróż
Страна: Польша
Жанр: Рисованный мультфильм
Продолжительность: 00:09:36
Год выпуска: 1979
Перевод: Студийный (одноголосый закадровый) Центрнаучфильм, 1980г.
Русские субтитры: нет-Режиссёр: Алина Малишевска / Alina Maliszewska
Описание: Запуская воздушного змея, девочка случайно оказывается в каком-то шатре, и обнаруживает там летающего деревянного коня. На этом коне она отправляется в кругосветное путешествие, где знакомится с детьми других стран.-Релиз: -Благодарности:
  • Спасибо Nekontroliruemij_devil за исходную запись с телеканала ТНТ
  • Спасибо xfiles за консультации и помощь в кодировании AVC-Семпл: https://yadi.sk/i/Jh1IF5KL3PHx4z
    Качество: TVRip-AVC
    Формат: MKV
    Видео: 698x572 (4:3) @ 760x572, 25 fps, AVC ~3893 kbps avg, 0.39 bit/pixel
    Аудио #1: Русский, 48 KHz, AC3, 1 ch, 192 Kbps
    Аудио #2: Русский, 48 KHz, FLAC, 1 ch, 406 Kbps
    Субтитры: нет

    MediaInfo

    General
    Unique ID : 197037818589077543835464397350358959496 (0x943C1A7EF5918182BFDBD779E4534588)
    Complete name : Фантастическое путешествие - Fantastyczna Podroz (1979) TVRip-AVC.mkv
    Format : Matroska
    Format version : Version 4 / Version 2
    File size : 309 MiB
    Duration : 9 min 36 s
    Overall bit rate mode : Variable
    Overall bit rate : 4 493 kb/s
    Encoded date : UTC 2017-10-26 07:57:57
    Writing application : mkvmerge v9.7.1 ('Pandemonium') 64bit
    Writing library : libebml v1.3.4 + libmatroska v1.4.5
    Video
    ID : 1
    Format : AVC
    Format/Info : Advanced Video Codec
    Format profile : High@L4
    Format settings, CABAC : Yes
    Format settings, RefFrames : 16 frames
    Codec ID : V_MPEG4/ISO/AVC
    Duration : 9 min 36 s
    Bit rate : 3 893 kb/s
    Width : 698 pixels
    Height : 572 pixels
    Display aspect ratio : 4:3
    Original display aspect rat : 4:3
    Frame rate mode : Constant
    Frame rate : 25.000 FPS
    Color space : YUV
    Chroma subsampling : 4:2:0
    Bit depth : 8 bits
    Scan type : Progressive
    Bits/(Pixel*Frame) : 0.390
    Stream size : 267 MiB (87%)
    Writing library : x264 core 152 r2851kMod ba24899
    Encoding settings : cabac=1 / ref=16 / deblock=1:-3:-2 / analyse=0x3:0x133 / me=umh / subme=11 / psy=1 / fade_compensate=0.00 / psy_rd=1.00:0.00 / mixed_ref=1 / me_range=48 / chroma_me=1 / trellis=2 / 8x8dct=1 / cqm=0 / deadzone=21,11 / fast_pskip=0 / chroma_qp_offset=-2 / threads=6 / lookahead_threads=1 / sliced_threads=0 / nr=0 / decimate=1 / interlaced=0 / bluray_compat=0 / constrained_intra=0 / bframes=16 / b_pyramid=2 / b_adapt=2 / b_bias=0 / direct=3 / weightb=1 / open_gop=0 / weightp=0 / keyint=250 / keyint_min=25 / scenecut=40 / intra_refresh=0 / rc=crf / mbtree=0 / crf=18.5000 / qcomp=0.60 / qpmin=0 / qpmax=69 / qpstep=4 / ip_ratio=1.40 / pb_ratio=1.30 / aq=1:0.75
    Default : Yes
    Forced : No
    Color range : Limited
    Color primaries : BT.601 PAL
    Transfer characteristics : BT.470 System B, BT.470 System G
    Matrix coefficients : BT.601
    Audio #1
    ID : 2
    Format : AC-3
    Format/Info : Audio Coding 3
    Format settings, Endianness : Big
    Codec ID : A_AC3
    Duration : 9 min 36 s
    Bit rate mode : Constant
    Bit rate : 192 kb/s
    Channel(s) : 1 channel
    Channel positions : Front: C
    Sampling rate : 48.0 kHz
    Frame rate : 31.250 FPS (1536 SPF)
    Bit depth : 16 bits
    Compression mode : Lossy
    Stream size : 13.2 MiB (4%)
    Title : VO, Центрнаучфильм, AC3 192kbps
    Language : Russian
    Service kind : Complete Main
    Default : Yes
    Forced : No
    Audio #2
    ID : 3
    Format : FLAC
    Format/Info : Free Lossless Audio Codec
    Codec ID : A_FLAC
    Duration : 9 min 36 s
    Bit rate mode : Variable
    Bit rate : 406 kb/s
    Channel(s) : 1 channel
    Channel positions : Front: C
    Sampling rate : 48.0 kHz
    Frame rate : 41.667 FPS (1152 SPF)
    Bit depth : 16 bits
    Stream size : 27.9 MiB (9%)
    Title : VO, Центрнаучфильм, FLAC
    Writing library : libFLAC 1.0.25 (UTC 2007-09-17)
    Language : Russian
    Default : No
    Forced : No

    Скриншоты

    [cybertorrent.ru].t3552.torrent 
    Торрент: Зарегистрирован [ 2018-02-16 23:01 ] · 560CAFE5D60E06706E82F7849C7D19CA3CC96A00

    Скачать .torrent

    Скачать

    13 KB

    Статус: проверено
    Скачан: 0 раз
    Размер: 309 MB
  • Профиль [ЛС]
    Показать сообщения:    

    Текущее время: 21-Авг 00:38

    Часовой пояс: UTC ± 0



    Вы не можете начинать темы
    Вы не можете отвечать на сообщения
    Вы не можете редактировать свои сообщения
    Вы не можете удалять свои сообщения
    Вы не можете голосовать в опросах
    Вы не можете прикреплять файлы к сообщениям
    Вы можете скачивать файлы
    Torrents24.ru открытый BitTorrent Torrents24.pl открытый BitTorrent CyberTorrent.ru открытый BitTorrent BtList.ru рейтинг BitTorrent трекеров Яндекс.Метрика