Статистика раздачи
Размер:  2,18 GB   |    Зарегистрирован:  3 месяца 5 дней   |    Скачан:  0 раз

Полного источника не было: Никогда

Личеров:  1  [  0 KB/s  ]  
 
   
 
 

lopster ®

Пол:
Не указан
Стаж:
3 месяца 5 дней
Сообщений:
612

В спорте только девушки- Год выпуска: 2014
Жанр: комедия-Продолжительность: 01:33:40-Режиссёры: Евгений Невский
В ролях: Александр Ведменский, Илья Глинников, Александр Головин, Екатерина Вилкова, Лянка Грыу, Алена Чехова, Михаил Трухин, Дмитрий Мухамадеев, Алексей Золотовицкий, Михаил Горевой и др.-Описание: Три друга-сноубордиста попадают в опасную для жизни переделку. Спасаясь от погони, парни «внедряются» в женскую сборную по сноуборду.-КиноПоиск | IMDb | Sample-Качество: BDRip-AVC (Источник: Blu-Ray Disc 1080p)
Формат: MKV
Видео: x264, 960x402 (2.40:1), 24.000 fps, ~2900 kbps avg, 0.313 bit/pixel
Аудио: Русский 48.0 KHz, АC3, 3/2 (L,C,R,l,r) + LFE ch, ~448.00 kbps avg |Оригинал|-

Релиз


Рип - whip93.

Сравнения с исходником

Source vs. Encode

MediaInfo | x264 log

x264 log

---[Information] [07.09.2017 11:20:35] raw [info]: 960x402p 1:1 @ 24/1 fps (cfr)
---[Information] [07.09.2017 11:20:35] x264 [info]: using SAR=1/1
---[Information] [07.09.2017 11:20:35] x264 [info]: using cpu capabilities: MMX2 SSE2Fast SSSE3 SSE4.2 AVX
---[Information] [07.09.2017 11:20:35] x264 [info]: profile High, level 4.1
---[Information] [07.09.2017 16:02:20] x264 [info]: frame I:1130 Avg QP:16.62 size: 78731
---[Information] [07.09.2017 16:02:20] x264 [info]: frame P:36481 Avg QP:19.82 size: 27510
---[Information] [07.09.2017 16:02:20] x264 [info]: frame B:97290 Avg QP:21.80 size: 9630
---[Information] [07.09.2017 16:02:20] x264 [info]: consecutive B-frames: 4.2% 5.0% 13.3% 42.3% 16.1% 15.0% 2.1% 0.7% 0.4% 0.4% 0.1% 0.1% 0.1% 0.3%
---[Information] [07.09.2017 16:02:20] x264 [info]: mb I I16..4: 6.7% 63.6% 29.7%
---[Information] [07.09.2017 16:02:20] x264 [info]: mb P I16..4: 1.9% 14.0% 3.2% P16..4: 27.6% 31.0% 13.0% 2.7% 0.5% skip: 6.0%
---[Information] [07.09.2017 16:02:20] x264 [info]: mb B I16..4: 0.5% 2.4% 0.6% B16..8: 31.0% 21.2% 4.0% direct: 8.9% skip:31.4% L0:39.1% L1:38.2% BI:22.7%
---[Information] [07.09.2017 16:02:20] x264 [info]: 8x8 transform intra:71.0% inter:65.0%
---[Information] [07.09.2017 16:02:20] x264 [info]: coded y,uvDC,uvAC intra: 75.8% 93.8% 84.0% inter: 26.1% 46.1% 27.1%
---[Information] [07.09.2017 16:02:20] x264 [info]: i16 v,h,dc,p: 24% 20% 5% 51%
---[Information] [07.09.2017 16:02:20] x264 [info]: i8 v,h,dc,ddl,ddr,vr,hd,vl,hu: 17% 8% 6% 8% 11% 13% 12% 12% 12%
---[Information] [07.09.2017 16:02:20] x264 [info]: i4 v,h,dc,ddl,ddr,vr,hd,vl,hu: 33% 8% 6% 6% 10% 11% 9% 8% 9%
---[Information] [07.09.2017 16:02:20] x264 [info]: i8c dc,h,v,p: 38% 24% 22% 16%
---[Information] [07.09.2017 16:02:20] x264 [info]: Weighted P-Frames: Y:5.0% UV:2.6%
---[Information] [07.09.2017 16:02:20] x264 [info]: ref P L0: 49.8% 14.8% 14.7% 5.8% 4.1% 2.7% 2.4% 1.3% 1.3% 1.0% 1.0% 0.9% 0.1% 0.0%
---[Information] [07.09.2017 16:02:20] x264 [info]: ref B L0: 80.4% 8.8% 3.9% 2.1% 1.5% 1.0% 0.8% 0.5% 0.6% 0.3% 0.1%
---[Information] [07.09.2017 16:02:20] x264 [info]: ref B L1: 96.3% 3.7%
---[Information] [07.09.2017 16:02:20] x264 [info]: kb/s:2888.48
---[Information] [07.09.2017 16:02:20] encoded 134901 frames, 7.98 fps, 2888.48 kb/s
General
Unique ID : 223550808534499909912877090843750870364 (0xA82E51D2EF443E118A31F91846E4AD5C)
Complete name : F:\В.спорте.только.девушки.2014.BDRip.DD5.1.x264.-whip93.mkv
Format : Matroska
Format version : Version 4 / Version 2
File size : 2.18 GiB
Duration : 1h 33mn
Overall bit rate : 3 338 Kbps
Movie name : В спорте только девушки (2014) - Release by whip93
Encoded date : UTC 2017-09-07 13:12:28
Writing application : mkvmerge v6.1.0 ('Old Devil') built on Mar 4 2013 09:10:42
Writing library : libebml v1.3.0 + libmatroska v1.4.0
Video
ID : 1
Format : AVC
Format/Info : Advanced Video Codec
Format profile : High@L4.1
Format settings, CABAC : Yes
Format settings, ReFrames : 12 frames
Codec ID : V_MPEG4/ISO/AVC
Duration : 1h 33mn
Bit rate : 2 900 Kbps
Width : 960 pixels
Height : 402 pixels
Display aspect ratio : 2.40:1
Frame rate mode : Constant
Frame rate : 24.000 fps
Color space : YUV
Chroma subsampling : 4:2:0
Bit depth : 8 bits
Scan type : Progressive
Bits/(Pixel*Frame) : 0.313
Stream size : 1.85 GiB (85%)
Title : Encoded by whip93
Writing library : x264 core 152 r2851 ba24899
Encoding settings : cabac=1 / ref=12 / deblock=1:-3:-3 / analyse=0x3:0x133 / me=umh / subme=11 / psy=1 / psy_rd=1.00:0.08 / mixed_ref=1 / me_range=64 / chroma_me=1 / trellis=2 / 8x8dct=1 / cqm=0 / deadzone=21,11 / fast_pskip=0 / chroma_qp_offset=-6 / threads=12 / lookahead_threads=3 / sliced_threads=0 / nr=0 / decimate=1 / interlaced=0 / bluray_compat=0 / constrained_intra=0 / bframes=13 / b_pyramid=2 / b_adapt=2 / b_bias=0 / direct=1 / weightb=1 / open_gop=0 / weightp=2 / keyint=240 / keyint_min=24 / scenecut=40 / intra_refresh=0 / rc_lookahead=60 / rc=2pass / mbtree=1 / bitrate=2900 / ratetol=1.0 / qcomp=0.72 / qpmin=0 / qpmax=69 / qpstep=4 / cplxblur=20.0 / qblur=0.5 / vbv_maxrate=50000 / vbv_bufsize=62500 / nal_hrd=none / filler=0 / ip_ratio=1.40 / aq=1:0.80
Language : Russian
Default : Yes
Forced : No
Color range : Limited
Color primaries : BT.709
Transfer characteristics : BT.709
Matrix coefficients : BT.709
Audio
ID : 2
Format : AC-3
Format/Info : Audio Coding 3
Mode extension : CM (complete main)
Format settings, Endianness : Big
Codec ID : A_AC3
Duration : 1h 33mn
Bit rate mode : Constant
Bit rate : 448 Kbps
Channel(s) : 6 channels
Channel positions : Front: L C R, Side: L R, LFE
Sampling rate : 48.0 KHz
Compression mode : Lossy
Stream size : 300 MiB (13%)
Language : Russian
Default : Yes
Forced : No
Menu
00:00:00.000 : ru:Глава 1
00:00:52.375 : ru:Глава 2
00:09:51.791 : ru:Глава 3
00:20:54.208 : ru:Глава 4
00:31:18.458 : ru:Глава 5
00:43:37.833 : ru:Глава 6
00:55:56.583 : ru:Глава 7
01:11:50.333 : ru:Глава 8
01:21:12.541 : ru:Глава 9

Скриншоты

-
[cybertorrent.ru].t371.torrent 
Торрент: Зарегистрирован [ 2018-02-15 15:48 ] · 506D5C1C52DCB5CE7A4210D22D221448AC0FDAF0

Скачать .torrent

Скачать

44 KB

Статус: проверено
Скачан: 0 раз
Размер: 2,18 GB
Профиль [ЛС]
Показать сообщения:    

Текущее время: 20-Май 23:38

Часовой пояс: UTC ± 0



Вы не можете начинать темы
Вы не можете отвечать на сообщения
Вы не можете редактировать свои сообщения
Вы не можете удалять свои сообщения
Вы не можете голосовать в опросах
Вы не можете прикреплять файлы к сообщениям
Вы можете скачивать файлы