Статистика раздачи
Размер:  6,55 GB   |    Зарегистрирован:  3 дня   |    Скачан:  0 раз

Полного источника не было: Никогда

Личеров:  1  [  0 KB/s  ]   Подробная статистика пиров
 
   
 
 

Zima ®

Пол:
Не указан
Стаж:
4 дня
Сообщений:
132

Смеяться разрешается 2017.12.10
Дата/Год выпуска: 2017
Страна: Россия
Жанр: юмор
Продолжительность: 01:22:00
Перевод: Не требуется
Телеканал: Россия 1 HD
Описание: На телеканале "Россия" - Смеяться разрешается" - это многообразие жанров: монологи, юморески, оригинальные номера, музыкальные пародии, а также популярные песни.
Номера передачи:
1.Г.Ветров - Золотой сборник №583
2.В.Данилец и В.Моисеенко - Шахматист
3.К.Пенькова и Д.Храмков - Ромашки спрятались
4.А.Цапик - Проблемы
5.И.Борисова и А.Егоров - Сделаем всё
6.С.Ещенко - Страхование
7.С.Павлиашвили - Рок-н-ролл балерина
8.Л.Измайлов - Мужики
9.И.Маменко и С.Рожкова - Врач
10.Клоун-мим театр "МирЛиц" - Рыбалка
11.Н.Коростелёва - Абонемент на фитнес
12.А.Трушкин - Дездемона
13.Степ-шоу "Вортэкс" - Зимний вечер в Гаграх
качество: HDTV 1080i
формат: TS
Видео кодек: H.264
Аудио кодек: MP2
Видео: H264; 1920x1080 (16:9); 25.000 fps; ~10.6 Mb/s
Аудио: MPEG Audio 48000Hz stereo 192 Кбит/сек

MediaInfo

General
ID : 1 (0x1)
Complete name : M:\Смеяться разрешается 2017.12.10.ts
Format : MPEG-TS
File size : 6.55 GiB
Duration : 1 h 22 min
Overall bit rate mode : Variable
Overall bit rate : 11.4 Mb/s
Video
ID : 2292 (0x8F4)
Menu ID : 2291 (0x8F3)
Format : AVC
Format/Info : Advanced Video Codec
Format profile : High@L4
Format settings, CABAC : Yes
Format settings, ReFrames : 4 frames
Format settings, GOP : M=4, N=32
Codec ID : 27
Duration : 1 h 22 min
Bit rate : 10.6 Mb/s
Width : 1 920 pixels
Height : 1 080 pixels
Display aspect ratio : 16:9
Frame rate : 25.000 FPS
Standard : Component
Color space : YUV
Chroma subsampling : 4:2:0
Bit depth : 8 bits
Scan type : Interlaced
Scan type, store method : Separated fields
Scan order : Top Field First
Bits/(Pixel*Frame) : 0.205
Stream size : 6.11 GiB (93%)
Color range : Limited
Color primaries : BT.709
Transfer characteristics : BT.709
Matrix coefficients : BT.709
Audio
ID : 2295 (0x8F7)
Menu ID : 2291 (0x8F3)
Format : MPEG Audio
Format version : Version 1
Format profile : Layer 2
Codec ID : 3
Duration : 1 h 22 min
Bit rate mode : Constant
Bit rate : 192 kb/s
Channel(s) : 2 channels
Sampling rate : 48.0 kHz
Compression mode : Lossy
Stream size : 113 MiB (2%)
Language : Russian

Скриншоты



[cybertorrent.ru].t3972.torrent 
Торрент: Зарегистрирован [ 2018-02-17 01:52 ] · 8EE7E07ED57EC56D5BD95F26E92B84BD51F28727

Скачать .torrent

Скачать

33 KB

Статус: проверено
Скачан: 0 раз
Размер: 6,55 GB
terms.php
Профиль [ЛС]
Показать сообщения:    

Текущее время: 20-Фев 05:41

Часовой пояс: UTC ± 0



Вы не можете начинать темы
Вы не можете отвечать на сообщения
Вы не можете редактировать свои сообщения
Вы не можете удалять свои сообщения
Вы не можете голосовать в опросах
Вы не можете прикреплять файлы к сообщениям
Вы можете скачивать файлы